<?xml version="1.0" standalone="no"?>
<!DOCTYPE svg PUBLIC "-//W3C//DTD SVG 1.1//EN" "http://www.w3.org/Graphics/SVG/1.1/DTD/svg11.dtd" >
<svg xmlns="http://www.w3.org/2000/svg" xmlns:xlink="http://www.w3.org/1999/xlink" version="1.1">
<metadata>
Created by FontForge 20170731 at Sat Nov  8 06:04:44 2008
 By Aleksey,,,
Copyright (c) 2004 by Joshua Darden &#38; Phil's Fonts, Inc. All rights reserved.
</metadata>
<defs>
<font id="FreightSans-Book" horiz-adv-x="397" >
  <font-face 
    font-family="Freight Sans Book"
    font-weight="400"
    font-stretch="normal"
    units-per-em="1000"
    panose-1="2 0 6 6 3 0 0 2 0 4"
    ascent="800"
    descent="-200"
    x-height="458"
    cap-height="625"
    bbox="-65 -260 1103 867"
    underline-thickness="20"
    underline-position="-153"
    unicode-range="U+0020-FB04"
  />
<missing-glyph horiz-adv-x="500" 
 />
    <glyph glyph-name=".notdef" horiz-adv-x="500" 
 />
    <glyph glyph-name=".null" horiz-adv-x="0" 
 />
    <glyph glyph-name="nonmarkingreturn" horiz-adv-x="139" 
 />
    <glyph glyph-name="space" unicode=" " horiz-adv-x="139" 
 />
    <glyph glyph-name="exclam" unicode="!" horiz-adv-x="260" 
d="M93 650h75l-19 -464h-35zM180 39q0 -20 -13.5 -36t-35.5 -16q-23 0 -37 16t-14 36t14 35t37 15q22 0 35.5 -15t13.5 -35z" />
    <glyph glyph-name="quotedbl" unicode="&#x22;" horiz-adv-x="303" 
d="M145 398l127 248l60 -29l-153 -219h-34zM-3 398l127 248l60 -29l-154 -219h-33z" />
    <glyph glyph-name="numbersign" unicode="#" horiz-adv-x="563" 
d="M39 370v46h138l60 226h49l-61 -226h172l60 226h48l-60 -226h90v-46h-103l-42 -158h125v-46h-138l-64 -240h-48l64 240h-171l-65 -240h-48l65 240h-91v46h103l43 158h-126zM212 370l-42 -158h172l42 158h-172z" />
    <glyph glyph-name="dollar" unicode="$" horiz-adv-x="491" 
d="M226 44h10q33 0 60 9t46.5 25t30.5 37.5t11 46.5q0 49 -32.5 75t-93.5 46zM268 637q1 7 2 15q1 7 1.5 15t2.5 17l6 46h43l-13 -98q34 -6 65 -18.5t58 -29.5l-23 -56q-49 34 -108 46l-31 -228q33 -10 64.5 -23.5t55.5 -34.5t39 -50t15 -71q0 -39 -15.5 -72t-43 -57
t-66.5 -37.5t-86 -13.5h-15l-15 -110h-43l15 115q-38 5 -74 19t-68 34l23 57q28 -19 59.5 -33t67.5 -21q2 19 5 39q2 17 5 39.5t7 45.5q7 55 17 124q-32 10 -63 22.5t-55 32t-39 48t-15 69.5q0 37 14.5 68.5t41 54t63 35t80.5 12.5h11.5t11.5 -1zM230 358q1 17 4 35
q2 16 5 35.5t6 40.5q6 48 15 111h-15q-35 0 -61 -8.5t-43 -23.5t-25 -34.5t-8 -40.5q0 -47 32.5 -71t89.5 -44z" />
    <glyph glyph-name="percent" unicode="%" horiz-adv-x="743" 
d="M347 482q0 -33 -11.5 -63t-33 -52.5t-52 -36t-69.5 -13.5q-38 0 -69 13.5t-52.5 36t-33 52.5t-11.5 63q0 34 11.5 64.5t33 53t52.5 36t69 13.5q39 0 69.5 -13.5t52 -36t33 -53t11.5 -64.5zM146 -15h-55l507 654h54zM727 142q0 -34 -11.5 -64.5t-33 -53t-52.5 -36
t-69 -13.5q-39 0 -69.5 13.5t-52 36t-33 53t-11.5 64.5q0 33 11.5 63t33 52.5t52 36t69.5 13.5q38 0 69 -13.5t52.5 -36t33 -52.5t11.5 -63zM302 482q0 52 -32 88t-89 36t-88.5 -36t-31.5 -88q0 -24 8 -46.5t23.5 -39t38 -26.5t50.5 -10t50.5 10t38.5 26.5t24 39t8 46.5z
M682 142q0 24 -8 46.5t-24 39t-38.5 26.5t-50.5 10t-50.5 -10t-38 -26.5t-23.5 -39t-8 -46.5q0 -52 31.5 -88t88.5 -36t89 36t32 88z" />
    <glyph glyph-name="ampersand" unicode="&#x26;" horiz-adv-x="624" 
d="M251 356q49 21 78 52t29 76q0 42 -30 70.5t-77 28.5q-51 0 -79.5 -30t-28.5 -69q0 -47 30.5 -77.5t77.5 -50.5zM406 169q-45 54 -91 90t-91 53q-27 -12 -51 -27.5t-41.5 -34t-28 -41t-10.5 -48.5q0 -24 9 -45.5t25.5 -38t40.5 -26t54 -9.5q51 0 97 34t87 93zM434 135
q-43 -66 -98.5 -107t-121.5 -41q-44 0 -78 14t-57.5 37.5t-36 54.5t-12.5 65q0 33 12 60.5t33 49.5t49 38t61 27q-48 25 -77 61t-29 86q0 29 12.5 57.5t35.5 50.5t55.5 35.5t73.5 13.5q37 0 67.5 -12t51.5 -32.5t32.5 -47t11.5 -56.5q0 -52 -34.5 -90.5t-91.5 -61.5
q35 -17 73.5 -49.5t73.5 -74.5l106 168h74l-150 -202l142 -175l-61 -18z" />
    <glyph glyph-name="quotesingle" unicode="'" horiz-adv-x="163" 
d="M-3 398l127 248l60 -29l-154 -219h-33z" />
    <glyph glyph-name="parenleft" unicode="(" horiz-adv-x="350" 
d="M337 -241q-42 22 -89.5 63.5t-87 101t-66 135.5t-26.5 167t26.5 167t66 136t87 101.5t89.5 63.5l29 -44q-40 -21 -82.5 -60t-78 -93t-58.5 -122.5t-23 -148.5t23 -148t58.5 -122t78 -93t82.5 -60l-29 -44v0z" />
    <glyph glyph-name="parenright" unicode=")" horiz-adv-x="350" 
d="M-16 -197q40 21 82.5 60t78 93t58 122t22.5 148t-22.5 148.5t-58 122.5t-78 93t-82.5 60l29 44q42 -22 89.5 -63.5t87 -101.5t66 -136t26.5 -167t-26.5 -167t-66 -135.5t-87 -101t-89.5 -63.5z" />
    <glyph glyph-name="asterisk" unicode="*" horiz-adv-x="339" 
d="M53 350l-40 53l134 71v5l-132 72l38 53l108 -108l4 1l28 148l62 -20l-69 -135l3 -3l145 21v-65l-145 21l-3 -3l67 -136l-61 -19l-28 149l-3 1z" />
    <glyph glyph-name="plus" unicode="+" horiz-adv-x="486" 
d="M272 207v-179h-55v179h-176l3 55h173v178h55v-178h171l3 -55h-174z" />
    <glyph glyph-name="comma" unicode="," horiz-adv-x="187" 
d="M37 46q2 19 15.5 34t38.5 15q27 0 49 -22t22 -57q0 -51 -36.5 -95t-87.5 -78l-27 27q48 34 68 63.5t20 55.5q0 20 -14.5 32t-47.5 25z" />
    <glyph glyph-name="hyphen" unicode="-" horiz-adv-x="292" 
d="M34 214v58h226v-58h-226z" />
    <glyph glyph-name="period" unicode="." horiz-adv-x="187" 
d="M144 39q0 -20 -14 -36t-36 -16t-36 16t-14 36t14 35t36 15t36 -15t14 -35z" />
    <glyph glyph-name="slash" unicode="/" horiz-adv-x="207" 
d="M-3 -199h-49l243 901h50z" />
    <glyph glyph-name="zero" unicode="0" horiz-adv-x="578" 
d="M530 236q0 -55 -18.5 -100.5t-51 -78.5t-76.5 -51.5t-96 -18.5q-51 0 -95 18.5t-76.5 51.5t-50.5 78.5t-18 100.5t18 100.5t50.5 78.5t76.5 51.5t95 18.5q52 0 96 -18.5t76.5 -51.5t51 -78.5t18.5 -100.5zM468 236q0 40 -13 75t-37 60.5t-57 40t-73 14.5q-39 0 -72 -14.5
t-56.5 -40t-36.5 -60.5t-13 -75q0 -41 13 -75.5t36.5 -60t56.5 -40t72 -14.5q40 0 73 14.5t57 40t37 60t13 75.5z" />
    <glyph glyph-name="one" unicode="1" horiz-adv-x="326" 
d="M162 406l-116 -44l-3 57l180 66v-485h-61v406z" />
    <glyph glyph-name="two" unicode="2" horiz-adv-x="440" 
d="M47 0v57q62 47 112 84.5t85 70t54 62t19 59.5q0 40 -28 67t-77 27q-38 0 -73.5 -16t-68.5 -42l-22 53q35 28 77 45.5t93 17.5q36 0 66.5 -10.5t52 -29.5t33.5 -45.5t12 -58.5q0 -41 -19.5 -76t-53.5 -68t-78.5 -66.5t-95.5 -71.5h270v-59h-358z" />
    <glyph glyph-name="three" unicode="3" horiz-adv-x="419" 
d="M239 167q38 -3 67.5 -17t50 -35.5t31.5 -49t11 -57.5q0 -44 -17 -80t-47 -61t-69.5 -38.5t-84.5 -13.5q-44 0 -88 10.5t-73 28.5l16 57q26 -16 64 -27.5t83 -11.5q66 0 108.5 34.5t42.5 96.5q0 57 -39.5 87.5t-100.5 32.5q-43 0 -91 -9v51q45 11 83 26t65.5 34.5t43 43.5
t15.5 54q0 51 -32.5 77.5t-87.5 26.5q-40 0 -78 -17t-70 -43l-23 52q34 27 80 46.5t97 19.5q84 0 132 -43t48 -111q0 -29 -11 -54t-30 -46t-43.5 -37.5t-52.5 -26.5z" />
    <glyph glyph-name="four" unicode="4" horiz-adv-x="501" 
d="M390 15v-199h-60v199h-307l-8 43l321 430h54v-414h95l3 -59h-98zM330 389l-235 -315h235v315z" />
    <glyph glyph-name="five" unicode="5" horiz-adv-x="419" 
d="M105 208q17 5 36 7.5t48 2.5q47 0 85.5 -14t65.5 -39.5t42 -60t15 -76.5q0 -47 -17 -86.5t-46.5 -67.5t-69 -43.5t-85.5 -15.5q-43 0 -86.5 12t-73.5 29l12 61q30 -17 69 -30t81 -13q33 0 61 10.5t48.5 30.5t32 47.5t11.5 62.5q0 28 -10.5 53.5t-30 44.5t-47.5 30t-63 11
q-22 0 -38 -1.5t-29.5 -3.5t-26 -6t-25.5 -8l-21 20l40 308h297l3 -60h-249l-29 -205v0z" />
    <glyph glyph-name="six" unicode="6" horiz-adv-x="503" 
d="M44 238q0 62 21 124.5t64 117t108.5 96t154.5 62.5l18 -58q-126 -30 -201.5 -102.5t-97.5 -167.5l2 -1q33 31 74.5 50.5t93.5 19.5q36 0 68.5 -12t57.5 -36t40 -58.5t15 -79.5q0 -44 -14.5 -82t-41 -65.5t-64.5 -43t-85 -15.5q-51 0 -90.5 20t-67 54t-41.5 79.5t-14 97.5
zM109 225q0 -36 10 -69t29.5 -57.5t47 -39.5t63.5 -15q65 0 102.5 41t37.5 105q0 31 -10 56t-27.5 42.5t-41.5 26.5t-51 9q-46 0 -86 -18.5t-71 -47.5q-3 -15 -3 -33z" />
    <glyph glyph-name="seven" unicode="7" horiz-adv-x="439" 
d="M18 412l3 61h395v-50l-283 -607h-63l279 596h-331z" />
    <glyph glyph-name="eight" unicode="8" horiz-adv-x="490" 
d="M271 333q42 17 71.5 48t29.5 77q0 26 -9.5 48t-26 37.5t-39.5 24.5t-50 9q-31 0 -55 -9t-40.5 -24.5t-25 -35.5t-8.5 -42q0 -26 13 -45.5t34.5 -35t49 -28t56.5 -24.5zM225 292q-24 -8 -45 -20.5t-37 -29t-25.5 -37t-9.5 -44.5q0 -54 36.5 -86.5t102.5 -32.5
q69 0 102 30.5t33 79.5q0 28 -13.5 49t-35.5 37t-50 28.5t-58 25.5zM318 311q25 -12 48.5 -26t40.5 -32t27.5 -40.5t10.5 -51.5q0 -34 -12.5 -65.5t-37.5 -55.5t-62.5 -38.5t-87.5 -14.5q-51 0 -89 13.5t-62.5 36t-36.5 53t-12 63.5t13 60t32.5 47t43 33t43.5 20
q-25 11 -47 24.5t-38.5 31t-26.5 39.5t-10 51q0 38 14 69.5t39.5 54.5t61.5 35.5t79 12.5t77.5 -12.5t58.5 -34.5t37 -52t13 -66q0 -30 -11 -54.5t-28 -44t-38 -33.5t-40 -23z" />
    <glyph glyph-name="nine" unicode="9" horiz-adv-x="503" 
d="M459 234q0 -62 -21 -124.5t-64 -117t-108.5 -96t-154.5 -62.5l-18 58q126 30 201.5 102.5t97.5 167.5l-2 1q-33 -31 -74 -50.5t-94 -19.5q-36 0 -68.5 12t-57.5 36t-40 58.5t-15 79.5q0 44 14.5 82t41.5 65.5t65 43t85 15.5q51 0 90.5 -20t66.5 -54t41 -79.5t14 -97.5z
M394 247q0 37 -10 69.5t-29 57.5t-47 39.5t-64 14.5q-65 0 -102.5 -41t-37.5 -105q0 -32 10 -56.5t28 -42t41.5 -26.5t50.5 -9q47 0 86.5 18.5t70.5 47.5q3 15 3 33z" />
    <glyph glyph-name="colon" unicode=":" horiz-adv-x="187" 
d="M144 358q0 -21 -14 -36.5t-36 -15.5t-36 15.5t-14 36.5q0 20 14 34.5t36 14.5t36 -14.5t14 -34.5zM144 39q0 -20 -14 -36t-36 -16t-36 16t-14 36t14 35t36 15t36 -15t14 -35z" />
    <glyph glyph-name="semicolon" unicode=";" horiz-adv-x="187" 
d="M144 358q0 -21 -14 -36.5t-36 -15.5t-36 15.5t-14 36.5q0 20 14 34.5t36 14.5t36 -14.5t14 -34.5zM37 46q2 19 15.5 34t38.5 15q27 0 49 -22t22 -57q0 -51 -36.5 -95t-87.5 -78l-27 27q48 34 68 63.5t20 55.5q0 20 -14.5 32t-47.5 25z" />
    <glyph glyph-name="less" unicode="&#x3c;" horiz-adv-x="456" 
d="M416 18l-382 190v54l381 191v-61l-311 -152v-10l312 -152v-60z" />
    <glyph glyph-name="equal" unicode="=" horiz-adv-x="446" 
d="M39 295l-4 55h378l-4 -55h-370zM35 119l4 55h370l4 -55h-378z" />
    <glyph glyph-name="greater" unicode="&#x3e;" horiz-adv-x="456" 
d="M38 18v60l312 152v10l-311 152v61l381 -191v-54z" />
    <glyph glyph-name="question" unicode="?" horiz-adv-x="349" 
d="M309 476q0 -32 -9 -53.5t-24 -36.5t-34 -25.5t-38 -18.5q-36 -16 -57 -29.5t-21 -38.5q0 -23 17 -44t43 -41l-33 -11q-29 17 -53 44t-24 60q0 22 7.5 38.5t21 28.5t31 21.5t37.5 17.5q18 7 33.5 14.5t27 17.5t18 23.5t6.5 31.5q0 21 -9 40.5t-26.5 34t-43 23.5t-58.5 9
q-20 0 -37 -3t-32 -6v57q14 4 31.5 6.5t40.5 2.5q43 0 77.5 -14t58.5 -37t36.5 -52.5t12.5 -59.5zM198 39q0 -20 -14 -36t-36 -16q-23 0 -37 16t-14 36t14 35t37 15q22 0 36 -15t14 -35z" />
    <glyph glyph-name="at" unicode="@" horiz-adv-x="831" 
d="M543 207q-11 -55 6.5 -85t61.5 -30q27 0 53 13.5t46 40.5t32 67t12 93q0 67 -27.5 122t-73 93.5t-104 59.5t-121.5 21q-73 0 -136 -29t-110 -78.5t-74 -114.5t-27 -137q0 -69 23.5 -129.5t65.5 -105.5t100.5 -71t128.5 -26q31 0 63 6t60 14l9 -33q-68 -21 -134 -21
q-77 0 -142 28t-112 77.5t-73.5 116t-26.5 143.5q0 81 30 152.5t81.5 125t122 84.5t151.5 31q73 0 139 -23t116 -66t79.5 -103.5t29.5 -136.5q0 -63 -16 -111t-42 -80.5t-60 -49.5t-70 -17q-42 0 -71.5 21t-41.5 53q-30 -36 -60.5 -51t-61.5 -15q-32 0 -58.5 12.5t-45 35
t-29 52t-10.5 64.5q0 47 16.5 89t45 73.5t66.5 50t81 18.5q29 0 54 -9t45 -21l58 26zM523 365q-16 17 -40.5 29t-53.5 12q-31 0 -58 -15.5t-46.5 -41t-31 -58t-11.5 -67.5q0 -53 28 -87t74 -34q51 0 96 51z" />
    <glyph glyph-name="A" unicode="A" horiz-adv-x="575" 
d="M560 0h-65l-66 179h-283l-66 -179h-65l237 625h75zM288 562l-120 -325h239z" />
    <glyph glyph-name="B" unicode="B" horiz-adv-x="550" 
d="M368 320q69 -14 104.5 -52.5t35.5 -93.5q0 -38 -13 -70t-40.5 -55t-70 -36t-101.5 -13h-203v625h195q56 0 96.5 -12t66.5 -34t38 -51.5t12 -65.5q0 -46 -28.5 -86t-91.5 -56zM424 457q0 51 -35.5 80.5t-110.5 29.5h-134v-225h124q71 0 113.5 29.5t42.5 85.5zM444 174
q0 55 -44 82.5t-128 27.5h-128v-226h144q83 0 119.5 31t36.5 85z" />
    <glyph glyph-name="C" unicode="C" horiz-adv-x="586" 
d="M522 530q-38 24 -81 37t-93 13q-51 0 -94.5 -18t-75 -52t-49 -83.5t-17.5 -113.5q0 -62 17 -111.5t48.5 -84.5t75 -53.5t97.5 -18.5q51 0 97 16t78 40l12 -63q-35 -23 -84 -37t-104 -14q-68 0 -123.5 23t-95.5 65t-61.5 102t-21.5 134q0 75 22.5 135t63 103t95.5 66
t121 23q57 0 107.5 -15t85.5 -36z" />
    <glyph glyph-name="D" unicode="D" horiz-adv-x="628" 
d="M581 317q0 -74 -22.5 -132.5t-65.5 -99.5t-105.5 -63t-142.5 -22h-165v625h170q77 0 138.5 -22.5t104 -63t65.5 -97t23 -125.5zM517 312q0 120 -71 187t-200 67h-102v-507h104q60 0 109.5 15.5t85 47t55 79t19.5 111.5z" />
    <glyph glyph-name="E" unicode="E" horiz-adv-x="507" 
d="M80 0v625h378v-59h-314v-224h262v-58h-262v-225h314v-59h-378z" />
    <glyph glyph-name="F" unicode="F" horiz-adv-x="479" 
d="M80 625h368v-60h-304v-233h252v-59h-252v-273h-64v625z" />
    <glyph glyph-name="G" unicode="G" horiz-adv-x="625" 
d="M562 49q-46 -31 -102.5 -46.5t-110.5 -15.5q-68 0 -123.5 23t-95.5 65t-61.5 102t-21.5 134q0 75 22.5 135t63 103t95.5 66t121 23q58 0 110.5 -15.5t87.5 -36.5l-21 -58q-35 23 -82 37.5t-96 14.5q-51 0 -94.5 -18t-75 -52t-49 -83.5t-17.5 -113.5q0 -62 17 -111.5
t48.5 -84.5t75 -53.5t97.5 -18.5q45 0 82.5 10.5t67.5 27.5v170h-181v58h243v-262v0z" />
    <glyph glyph-name="H" unicode="H" horiz-adv-x="654" 
d="M510 0v285h-366v-285h-64v625h64v-282h366v282h64v-625h-64z" />
    <glyph glyph-name="I" unicode="I" horiz-adv-x="228" 
d="M82 0v625h63v-625h-63z" />
    <glyph glyph-name="J" unicode="J" horiz-adv-x="414" 
d="M341 192q0 -93 -45.5 -149t-142.5 -56q-42 0 -78.5 12t-60.5 27l11 62q30 -19 62 -31t67 -12q124 0 124 149v431h63v-433v0z" />
    <glyph glyph-name="K" unicode="K" horiz-adv-x="537" 
d="M145 325l289 300h82l-309 -310l314 -315h-83l-293 299h-1v-299h-64v625h64v-300h1z" />
    <glyph glyph-name="L" unicode="L" horiz-adv-x="478" 
d="M80 0v625h64v-565h309v-60h-373z" />
    <glyph glyph-name="M" unicode="M" horiz-adv-x="761" 
d="M621 546l-205 -542h-70l-207 543l-11 -547h-63l21 625h86l211 -552l208 552h85l20 -625h-65z" />
    <glyph glyph-name="N" unicode="N" horiz-adv-x="650" 
d="M507 625h62v-631h-69l-358 541v-535h-62v625h72l355 -536v536z" />
    <glyph glyph-name="O" unicode="O" horiz-adv-x="709" 
d="M662 315q0 -72 -23 -132t-64 -103.5t-97.5 -68t-123.5 -24.5q-65 0 -121.5 23.5t-97.5 66t-64.5 102.5t-23.5 132t23 132t64 103.5t97.5 67.5t123.5 24q65 0 121 -23.5t97.5 -66t65 -102t23.5 -131.5zM597 311q0 60 -18 110t-50.5 85.5t-77.5 55t-98 19.5t-97 -19.5
t-76 -54.5t-50 -84t-18 -108q0 -60 18.5 -110t51 -86t77.5 -55.5t98 -19.5q52 0 96 19.5t76 54.5t50 84.5t18 108.5z" />
    <glyph glyph-name="P" unicode="P" horiz-adv-x="519" 
d="M481 430q0 -103 -67.5 -155t-184.5 -54l-85 -1v-220h-64v625h157q62 0 108 -14.5t76 -40t45 -61.5t15 -79zM415 427q0 67 -46 103t-134 36h-91v-287l89 2q89 2 135.5 37.5t46.5 108.5z" />
    <glyph glyph-name="Q" unicode="Q" horiz-adv-x="709" 
d="M681 -91l-28 -55l-256 137q-11 -2 -21.5 -3t-21.5 -1q-65 0 -121.5 23.5t-97.5 66t-64.5 102.5t-23.5 132t23 132t64 103.5t97.5 67.5t123.5 24q65 0 121 -23.5t97.5 -66t65 -102t23.5 -131.5q0 -54 -13.5 -101t-37.5 -86t-58.5 -68t-76.5 -47zM597 311q0 60 -18 110
t-50.5 85.5t-77.5 55t-98 19.5t-97 -19.5t-76 -54.5t-50 -84t-18 -108q0 -60 18.5 -110t51 -86t77.5 -55.5t98 -19.5q52 0 96 19.5t76 54.5t50 84.5t18 108.5z" />
    <glyph glyph-name="R" unicode="R" horiz-adv-x="529" 
d="M144 0h-64v625h168q116 0 171.5 -49t55.5 -131q0 -35 -11.5 -63.5t-31 -50.5t-46 -37.5t-56.5 -24.5l173 -269h-74l-160 258l-125 -8v-250zM256 311q31 1 59 10t49.5 25.5t34 40.5t12.5 55q0 62 -44 93.5t-126 31.5h-97v-260z" />
    <glyph glyph-name="S" unicode="S" horiz-adv-x="490" 
d="M239 44q33 0 60 9t46.5 25t30.5 37.5t11 46.5q0 27 -11 47t-31.5 35t-49.5 26.5t-66 22.5q-33 10 -65.5 23t-58.5 33t-42 48.5t-16 70.5q0 37 15 68.5t41.5 54t63 35t80.5 12.5q54 0 101 -14t87 -40l-23 -56q-35 24 -78.5 38t-85.5 14q-35 0 -61.5 -8.5t-43.5 -23.5
t-25.5 -34.5t-8.5 -40.5q0 -26 11 -44.5t32 -32.5t50 -25.5t65 -22.5q34 -10 66.5 -23.5t58 -34.5t41 -51t15.5 -72q0 -39 -15.5 -72t-43 -57t-66.5 -37.5t-86 -13.5q-57 0 -107.5 15.5t-93.5 42.5l23 57q38 -26 82 -42t98 -16z" />
    <glyph glyph-name="T" unicode="T" horiz-adv-x="550" 
d="M307 565v-565h-64v565h-220v60h504v-60h-220z" />
    <glyph glyph-name="U" unicode="U" horiz-adv-x="616" 
d="M544 239q0 -58 -15 -104.5t-45 -79.5t-74.5 -50.5t-102.5 -17.5q-56 0 -99.5 17t-73.5 48.5t-45.5 76t-15.5 100.5v396h62v-388q0 -90 43.5 -140.5t131.5 -50.5q84 0 127.5 49t43.5 143v387h63v-386v0z" />
    <glyph glyph-name="V" unicode="V" horiz-adv-x="555" 
d="M314 0h-75l-229 625h65l203 -559l202 559h65z" />
    <glyph glyph-name="W" unicode="W" horiz-adv-x="895" 
d="M280 0h-61l-178 625h66l146 -534l159 534h76l162 -534l140 534h64l-175 -625h-62l-168 550z" />
    <glyph glyph-name="X" unicode="X" horiz-adv-x="562" 
d="M88 0h-75l229 318l-217 307h76l180 -261l181 261h75l-219 -304l230 -321h-78l-191 277z" />
    <glyph glyph-name="Y" unicode="Y" horiz-adv-x="524" 
d="M294 251v-251h-64v251l-218 374h72l180 -311l177 311h71z" />
    <glyph glyph-name="Z" unicode="Z" horiz-adv-x="510" 
d="M24 0v47l371 520h-360v58h440v-48l-371 -519h370v-58h-450z" />
    <glyph glyph-name="bracketleft" unicode="[" horiz-adv-x="387" 
d="M98 -222v897h260v-51h-203v-795h203v-51h-260z" />
    <glyph glyph-name="backslash" unicode="\" horiz-adv-x="207" 
d="M17 702l243 -901h-49l-244 901h50z" />
    <glyph glyph-name="bracketright" unicode="]" horiz-adv-x="387" 
d="M30 -171h203v795h-203v51h259v-897h-259v51z" />
    <glyph glyph-name="asciicircum" unicode="^" horiz-adv-x="377" 
d="M301 518l-100 135h-1l-101 -135h-47l113 182h70l113 -182h-47z" />
    <glyph glyph-name="underscore" unicode="_" horiz-adv-x="445" 
d="M-11 -49v49h467v-49h-467z" />
    <glyph glyph-name="grave" unicode="`" horiz-adv-x="396" 
d="M223 518l-152 179h80l118 -179h-46z" />
    <glyph glyph-name="a" unicode="a" horiz-adv-x="439" 
d="M311 235q-59 -7 -99.5 -17t-66 -24t-36.5 -32t-11 -41q0 -37 26.5 -58.5t67.5 -21.5q37 0 67.5 18t51.5 42v134zM312 55q-23 -29 -58 -48.5t-76 -19.5q-32 0 -58.5 9.5t-45.5 26.5t-30 40.5t-11 50.5q0 31 13.5 58.5t45.5 49.5t85.5 36t133.5 19v27q0 54 -25.5 81.5
t-82.5 27.5q-19 0 -39 -4.5t-40 -12t-38 -17.5t-33 -21l-14 58q15 11 35 21t42.5 17.5t46 12t46.5 4.5q79 0 122 -38.5t42 -125.5v-220q0 -25 8 -36t38 -10l-4 -51q-45 -3 -70 14t-30 51h-3z" />
    <glyph glyph-name="b" unicode="b" horiz-adv-x="511" 
d="M472 235q0 -54 -17 -99.5t-47 -78.5t-71.5 -51.5t-90.5 -18.5q-28 0 -58.5 7t-53.5 18l-62 -27v689l62 13v-277q23 22 58 40t80 18t82 -17t63.5 -48t40.5 -74t14 -94zM408 232q0 39 -10.5 72t-29.5 56.5t-46.5 37t-61.5 13.5q-38 0 -69.5 -14t-56.5 -37v-281
q21 -17 51.5 -26.5t63.5 -9.5q37 0 66.5 14t50 39t31.5 60t11 76z" />
    <glyph glyph-name="c" unicode="c" horiz-adv-x="451" 
d="M408 26q-29 -18 -65.5 -28.5t-76.5 -10.5q-52 0 -93.5 17.5t-70.5 49.5t-44.5 76.5t-15.5 97.5q0 54 17 98.5t47 76.5t71 50t90 18q42 0 78 -10t65 -29l-16 -56q-26 17 -58.5 27t-68.5 10q-37 0 -67 -13.5t-51 -37.5t-32 -57.5t-11 -74.5q0 -42 11.5 -76t33 -58.5
t51.5 -37.5t66 -13q35 0 68 10.5t59 27.5l13 -57v0z" />
    <glyph glyph-name="d" unicode="d" horiz-adv-x="514" 
d="M380 674l62 13v-687h-62v43q-23 -21 -56.5 -38.5t-76.5 -17.5q-46 0 -84 17.5t-65 49t-41.5 75.5t-14.5 96q0 53 17 97.5t47 77t71.5 50.5t91.5 18q29 0 58.5 -7t52.5 -18v231zM380 377q-21 17 -51 26t-63 9q-37 0 -66.5 -14t-50.5 -38.5t-32 -59t-11 -74.5t10.5 -73.5
t30.5 -57.5t48 -37.5t63 -13.5t66.5 14t55.5 37v282z" />
    <glyph glyph-name="e" unicode="e" horiz-adv-x="470" 
d="M105 222q1 -39 12.5 -71.5t32.5 -56t50 -36.5t65 -13q38 0 72.5 10.5t60.5 27.5l12 -57q-29 -18 -66.5 -28.5t-80.5 -10.5q-50 0 -90.5 17.5t-69.5 49t-45 75.5t-16 96q0 54 16.5 99t45 78t68 51t86.5 18q76 0 121.5 -45.5t45.5 -123.5q0 -18 -2.5 -38t-7.5 -35l-310 -2
v-5zM363 277q1 4 1 10v10q0 53 -28 85.5t-82 32.5q-31 0 -56 -11t-43.5 -30t-30 -44.5t-15.5 -53.5z" />
    <glyph glyph-name="f" unicode="f" horiz-adv-x="298" 
d="M307 676l-2.5 -9t-5 -19.5t-5 -19l-2.5 -8.5q-16 8 -33.5 13.5t-36.5 5.5q-38 0 -57 -25.5t-19 -81.5v-76h144l-3 -55h-141v-401h-61v399l-74 5l4 39l69 16l1 72q1 45 11.5 76.5t28.5 51t43 28.5t55 9q23 0 45.5 -6t38.5 -14z" />
    <glyph glyph-name="g" unicode="g" horiz-adv-x="468" 
d="M107 298q0 -50 31 -83.5t87 -33.5q53 0 83.5 33.5t30.5 86.5q0 51 -29.5 85t-87.5 34q-54 0 -84.5 -34t-30.5 -88zM161 -13q-42 -11 -67.5 -36t-25.5 -54q0 -41 41.5 -67.5t114.5 -26.5q36 0 67 8t54.5 22.5t37 34.5t13.5 43q0 41 -35 57t-104 16q-23 0 -49.5 0.5
t-46.5 2.5zM107 -1q-29 11 -45.5 29.5t-16.5 43.5q0 29 21.5 52t53.5 35q-33 20 -53.5 56t-20.5 84q0 36 13 67.5t36.5 55t56.5 36.5t74 13q36 0 62.5 -8t45.5 -19l127 10l3 -62l-101 10q17 -17 27 -46t10 -57q0 -36 -13.5 -67t-37.5 -53.5t-56.5 -35t-70.5 -12.5
q-19 0 -35 3.5t-33 9.5q-18 -8 -34.5 -21.5t-16.5 -33.5q0 -11 4.5 -19.5t16.5 -14.5t32 -9.5t51 -3.5h59q100 0 145 -31.5t45 -88.5q0 -38 -19.5 -69t-53 -53.5t-77 -35t-91.5 -12.5q-46 0 -84 9.5t-65.5 27.5t-42.5 42.5t-15 54.5q0 39 27 70.5t72 42.5z" />
    <glyph glyph-name="h" unicode="h" horiz-adv-x="505" 
d="M374 0v296q0 60 -24 88t-74 28q-40 0 -76.5 -18t-65.5 -47v-347h-62v674l62 13v-289q36 36 78.5 54.5t80.5 18.5q67 0 105 -41t38 -116v-314h-62z" />
    <glyph glyph-name="i" unicode="i" horiz-adv-x="209" 
d="M146 609q0 -18 -10.5 -32t-31.5 -14t-31.5 14t-10.5 32q0 17 10.5 30.5t31.5 13.5t31.5 -13.5t10.5 -30.5zM73 0v458l62 13v-471h-62z" />
    <glyph glyph-name="j" unicode="j" horiz-adv-x="207" 
d="M146 609q0 -18 -10.5 -32t-31.5 -14t-31.5 14t-10.5 32q0 17 10.5 30.5t31.5 13.5t31.5 -13.5t10.5 -30.5zM-15 -206q25 13 41.5 28t27 35t15 47t4.5 64v490l62 13v-503q0 -44 -6 -78t-19 -59.5t-33.5 -45t-49.5 -35.5z" />
    <glyph glyph-name="k" unicode="k" horiz-adv-x="434" 
d="M134 228v-228h-62v674l62 13v-440h2l206 211h78l-220 -218l221 -240h-79l-206 228h-2z" />
    <glyph glyph-name="l" unicode="l" horiz-adv-x="206" 
d="M72 0v674l62 13v-687h-62z" />
    <glyph glyph-name="m" unicode="m" horiz-adv-x="775" 
d="M644 0v295q0 60 -23.5 88.5t-73.5 28.5q-37 0 -70 -17t-59 -42q1 -5 1.5 -19t0.5 -22v-312h-62v295q0 60 -23.5 88.5t-73.5 28.5q-36 0 -68.5 -15t-58.5 -38v-359h-62v458l62 13v-63q35 32 72.5 47.5t72.5 15.5q43 0 75 -19t49 -57q38 38 80 57t82 19q66 0 103.5 -41
t37.5 -117v-313h-62z" />
    <glyph glyph-name="n" unicode="n" horiz-adv-x="505" 
d="M374 0v296q0 60 -24.5 88t-76.5 28q-38 0 -74 -18t-65 -47v-347h-62v458l62 13v-75q36 36 78 55.5t78 19.5q69 0 107.5 -41t38.5 -116v-314h-62z" />
    <glyph glyph-name="o" unicode="o" horiz-adv-x="531" 
d="M488 230q0 -55 -17.5 -99.5t-47.5 -76.5t-71 -49.5t-89 -17.5t-88.5 17t-70 48.5t-46 76t-16.5 99.5t17.5 99.5t47.5 76.5t71.5 49.5t89.5 17.5t88.5 -17t69.5 -48.5t45.5 -76t16.5 -99.5zM427 228q0 42 -11.5 76.5t-33 59t-51.5 38t-66 13.5t-66 -13.5t-51 -38.5
t-32.5 -59t-11.5 -74q0 -42 11.5 -76.5t33 -59t51.5 -38t66 -13.5t66 13.5t51 38.5t32.5 58.5t11.5 74.5z" />
    <glyph glyph-name="p" unicode="p" horiz-adv-x="515" 
d="M134 412q23 22 57 39t76 17q46 0 84 -17.5t65 -49t41.5 -75t14.5 -95.5q0 -53 -17 -98t-47 -77.5t-71.5 -50.5t-90.5 -18q-27 0 -58 6.5t-54 17.5v-244h-62v693l62 13v-61zM134 79q21 -17 51.5 -26.5t63.5 -9.5q37 0 66.5 14t50 39t31.5 59t11 75q0 40 -10.5 73t-30 57
t-47.5 37.5t-63 13.5t-66.5 -14t-56.5 -37v-281z" />
    <glyph glyph-name="q" unicode="q" horiz-adv-x="514" 
d="M380 -233v276q-23 -21 -56.5 -38.5t-76.5 -17.5q-46 0 -84 17.5t-65 49t-41.5 75.5t-14.5 96q0 53 17 97.5t47 77t71.5 50.5t91.5 18q34 0 66 -7.5t55 -18.5l52 29v-704h-62zM380 377q-21 17 -51 26.5t-63 9.5q-37 0 -66.5 -14t-50.5 -39t-32 -59.5t-11 -74.5t10.5 -73.5
t30.5 -58t48 -38t63 -13.5t66.5 14.5t55.5 37.5v282z" />
    <glyph glyph-name="r" unicode="r" horiz-adv-x="356" 
d="M134 0h-62v458l62 13v-98q23 45 56.5 71.5t78.5 26.5q23 0 43.5 -6t36.5 -15l-16 -58q-15 9 -32.5 14.5t-37.5 5.5q-36 0 -69 -28t-60 -90v-294z" />
    <glyph glyph-name="s" unicode="s" horiz-adv-x="387" 
d="M347 125q0 -32 -12.5 -57.5t-35 -43.5t-52.5 -27.5t-64 -9.5q-41 0 -81 11t-69 30l17 57q29 -20 64.5 -31t70.5 -11q21 0 39.5 5t32.5 14.5t22.5 24t8.5 33.5q0 21 -10 35t-26 23.5t-37 16.5l-42 14q-24 7 -47.5 17t-42.5 25t-31 36.5t-12 51.5q0 31 12 55.5t33 41.5
t49.5 26t60.5 9q38 0 74 -9.5t65 -24.5l-18 -56q-29 16 -62 25t-63 9q-42 0 -67 -18.5t-25 -51.5q0 -20 9.5 -33t25 -22.5t36 -16.5t42.5 -14q24 -7 48.5 -17t43.5 -25.5t31 -37.5t12 -54z" />
    <glyph glyph-name="t" unicode="t" horiz-adv-x="329" 
d="M300 9q-24 -11 -50.5 -17.5t-51.5 -6.5q-128 0 -123 144l7 271l-70 4l3 39l69 16l3 104h59l-3 -107h153l-3 -55h-152l-7 -274q-3 -86 67 -86q23 0 45 6.5t43 15.5l11 -54v0z" />
    <glyph glyph-name="u" unicode="u" horiz-adv-x="504" 
d="M130 458v-296q0 -60 24 -88t75 -28q40 0 76.5 18t64.5 47v347h62v-458l-62 -13v74q-35 -36 -77.5 -55t-80.5 -19q-67 0 -105.5 41t-38.5 116v314h62z" />
    <glyph glyph-name="v" unicode="v" horiz-adv-x="424" 
d="M240 -1h-56l-181 459h67l145 -378l140 378h65z" />
    <glyph glyph-name="w" unicode="w" horiz-adv-x="662" 
d="M155 -2l-140 460h66l106 -365l119 364h56l125 -366l95 367h68l-136 -460h-55l-125 370l-125 -370h-54z" />
    <glyph glyph-name="x" unicode="x" horiz-adv-x="394" 
d="M321 0l-124 193l-123 -193h-70l158 235l-148 223h69l114 -178l112 178h69l-146 -221l158 -237h-69z" />
    <glyph glyph-name="y" unicode="y" horiz-adv-x="424" 
d="M242 5l-37 -99q-16 -42 -32.5 -70t-34.5 -44.5t-38 -23t-43 -6.5q-26 0 -47 6t-42 15l19 57q17 -9 34 -14.5t36 -5.5q13 0 24.5 4.5t23 16t23 32t23.5 53.5l31 81l-179 451h67l144 -378l141 378h65z" />
    <glyph glyph-name="z" unicode="z" horiz-adv-x="392" 
d="M21 0v49l273 354h-264v55h338v-48l-273 -355h273v-55h-347z" />
    <glyph glyph-name="braceleft" unicode="{" horiz-adv-x="332" 
d="M316 -229q-104 5 -160.5 33.5t-56.5 93.5q0 31 8 58.5t17 53t17 49.5t8 48q0 46 -29 65.5t-98 25.5l-3 33l3 34q69 5 98 24.5t29 66.5q0 24 -8 48t-17 49.5t-17 52.5t-8 58q0 65 56.5 94t160.5 34v-46q-88 -7 -123.5 -25t-35.5 -52q0 -24 8 -49t17.5 -50.5t17.5 -51.5
t8 -52q0 -52 -33 -89.5t-105 -42.5v-6q72 -5 105 -42.5t33 -90.5q0 -26 -8 -51.5t-17.5 -51t-17.5 -50t-8 -46.5q0 -36 35.5 -54.5t123.5 -25.5v-45v0z" />
    <glyph glyph-name="bar" unicode="|" horiz-adv-x="247" 
d="M96 702h55v-901h-55v901z" />
    <glyph glyph-name="braceright" unicode="}" horiz-adv-x="332" 
d="M310 197q-69 -5 -98.5 -24.5t-29.5 -66.5q0 -24 8 -48t17.5 -49.5t17.5 -52.5t8 -58q0 -65 -56.5 -94t-160.5 -33v45q87 6 123 24.5t36 53.5q0 23 -8 48t-17.5 50.5t-17.5 51t-8 51.5q0 52 33 90t105 43v6q-72 4 -105 41.5t-33 90.5q0 26 8 52t17.5 51.5t17.5 50.5t8 48
q0 34 -36 52.5t-123 25.5v46q104 -6 160.5 -34.5t56.5 -93.5q0 -31 -8 -58.5t-17.5 -53t-17.5 -49.5t-8 -48q0 -47 29.5 -66.5t98.5 -24.5l3 -33z" />
    <glyph glyph-name="asciitilde" unicode="~" horiz-adv-x="377" 
d="M362 292q-8 -59 -29.5 -87t-59.5 -28q-22 0 -43 11t-40 24.5t-36 24.5t-31 11q-15 0 -25 -13.5t-20 -51.5h-41q8 59 29.5 87t59.5 28q22 0 43 -11.5t40.5 -25t36.5 -24.5t31 -11t24.5 13.5t19.5 52.5h41v0z" />
    <glyph glyph-name="nonbreakingspace" unicode="&#xa0;" horiz-adv-x="137" 
 />
    <glyph glyph-name="exclamdown" unicode="&#xa1;" horiz-adv-x="260" 
d="M80 585q0 20 13.5 36t36.5 16q22 0 36 -16t14 -36t-14 -34.5t-36 -14.5q-23 0 -36.5 14.5t-13.5 34.5zM167 -25h-75l20 464h35z" />
    <glyph glyph-name="cent" unicode="&#xa2;" horiz-adv-x="445" 
d="M319 466q50 -9 91 -34l-16 -56q-36 24 -83 33l-49 -364h6q35 0 68 10.5t59 27.5l13 -57q-29 -18 -65 -28.5t-76 -10.5h-13l-14 -110h-43l16 116q-39 9 -70.5 29.5t-54 51t-34.5 69.5t-12 85q0 54 16.5 98.5t46.5 76.5t71 50t90 18h11l12 91h43q-4 -27 -7 -48zM266 413
q-75 0 -117.5 -50.5t-42.5 -132.5q0 -70 30.5 -117t83.5 -62q4 27 8 57q4 26 8 58t9 66q11 79 24 181h-3z" />
    <glyph glyph-name="sterling" unicode="&#xa3;" horiz-adv-x="495" 
d="M127 323q-3 58 -3 106q0 103 50 157t138 54q39 0 73.5 -10t63.5 -27l-16 -55q-26 15 -55.5 25.5t-67.5 10.5q-33 0 -57 -11t-39 -30.5t-22 -46t-7 -58.5q0 -23 1 -52t3 -63h196l-3 -46h-191q1 -25 1.5 -49.5t0.5 -50.5q0 -40 -7 -68q17 -15 37 -27.5t40 -21.5t38.5 -14
t32.5 -5q36 0 64 22.5t42 85.5l46 -10q-8 -75 -49 -114.5t-96 -39.5q-45 0 -90 22.5t-83 57.5q-17 -27 -49 -47.5t-86 -34.5q-4 15 -7 26q-3 10 -5 18t-2 7q34 10 55.5 22.5t34.5 28.5t18 37t5 49q0 50 -3 106h-94l-3 46h95v0z" />
    <glyph glyph-name="currency" unicode="&#xa4;" horiz-adv-x="504" 
d="M36 372l-3 45h79q20 112 79 167.5t148 55.5q87 0 144 -34l-14 -55q-57 34 -130 34q-136 0 -166 -168h235l-3 -45h-237q-1 -14 -1.5 -28t-0.5 -28q0 -16 0.5 -31.5t1.5 -29.5h207l3 -45h-204q31 -170 162 -170q40 0 73.5 8.5t61.5 24.5l10 -55q-29 -16 -65 -24.5t-82 -8.5
q-91 0 -149 55t-75 170h-77l3 45h69q-1 14 -1.5 27.5t-0.5 27.5q0 16 0.5 31.5t1.5 30.5h-69z" />
    <glyph glyph-name="yen" unicode="&#xa5;" horiz-adv-x="545" 
d="M57 264l-3 46h157l-198 315h71l180 -299l178 299h69l-197 -315h156l-3 -46h-174v-88h174l3 -45h-177v-131h-62v131h-177l3 45h175v88h-175z" />
    <glyph glyph-name="section" unicode="&#xa7;" horiz-adv-x="470" 
d="M451 289q0 -48 -31.5 -79.5t-79.5 -46.5q23 -16 37.5 -37.5t14.5 -53.5t-13 -57.5t-35.5 -43.5t-53 -27.5t-64.5 -9.5q-41 0 -81 11.5t-69 29.5l18 56q29 -19 64 -30t70 -11q42 0 73.5 20t31.5 56q0 20 -12 34t-31.5 24.5t-45 18.5t-52.5 16q-31 9 -61 19.5t-54 25.5
t-38.5 36.5t-14.5 52.5q0 48 34.5 80.5t82.5 46.5q-26 15 -42.5 36.5t-16.5 53.5t12.5 56.5t34 41.5t50 26t60.5 9q38 0 74 -9.5t65 -24.5l-18 -55q-29 15 -62 24t-63 9q-42 0 -68 -18.5t-26 -51.5q0 -18 11.5 -31t31 -22.5t44 -17t51.5 -15.5q31 -9 62 -20t55.5 -27
t39.5 -39t15 -56zM393 277q0 28 -21 46t-52.5 30.5t-69.5 23.5t-72 25q-16 -7 -33 -16.5t-31.5 -21.5t-23.5 -26.5t-9 -31.5q0 -27 22 -44t55.5 -29.5t72.5 -23.5t74 -27q16 7 31.5 16.5t28 21t20.5 26t8 31.5z" />
    <glyph glyph-name="dieresis" unicode="&#xa8;" 
d="M344 593q0 -20 -13 -35t-34 -15q-22 0 -35.5 15t-13.5 35t13.5 34.5t35.5 14.5q21 0 34 -14.5t13 -34.5zM151 593q0 -20 -13 -35t-35 -15q-21 0 -34 15t-13 35t13 34.5t34 14.5q22 0 35 -14.5t13 -34.5z" />
    <glyph glyph-name="copyright" unicode="&#xa9;" horiz-adv-x="729" 
d="M365 -16q-68 0 -127.5 26t-104 70t-70 103.5t-25.5 127.5t25.5 127.5t70 104t104 70.5t127.5 26t127.5 -26t104 -70.5t70 -104t25.5 -127.5t-25.5 -127.5t-70 -103.5t-104 -70t-127.5 -26zM663 311q0 61 -23.5 116t-64 96t-94.5 65t-116 24t-116 -24t-94.5 -65t-64 -96
t-23.5 -116q0 -62 23.5 -116t64 -95t94.5 -64.5t116 -23.5t116 23.5t94.5 64.5t64 95t23.5 116zM474 422q-43 28 -95 28q-57 0 -91.5 -36t-34.5 -102q0 -64 34.5 -102t92.5 -38q28 0 53.5 9t44.5 23l10 -49q-21 -14 -50 -21.5t-60 -7.5q-39 0 -72 13t-56 37t-36 58t-13 76
t13 76.5t36.5 59t56.5 37.5t72 13q31 0 61 -7.5t51 -21.5z" />
    <glyph glyph-name="ordfeminine" unicode="&#xaa;" horiz-adv-x="340" 
d="M270 250q-20 19 -30 54h-1q-18 -20 -47.5 -37t-64.5 -17q-48 0 -76 29.5t-28 72.5q0 27 11.5 50t37 40t66 27.5t97.5 13.5v24q0 39 -18 60t-58 21q-32 0 -60.5 -12.5t-52.5 -31.5l-21 43q29 21 63.5 36t74.5 15q26 0 48.5 -6.5t39 -21.5t26 -39.5t9.5 -60.5v-152
q0 -33 12 -56.5t26 -39.5zM235 443q-47 -3 -78 -11t-49.5 -19.5t-26.5 -25.5t-8 -29q0 -31 20 -46t46 -15t52.5 12t43.5 30v104z" />
    <glyph glyph-name="guillemotleft" unicode="&#xab;" horiz-adv-x="573" 
d="M532 26l-246 175v66l246 175l7 -48l-196 -159v-2l196 -159zM259 37l-234 166v62l234 166l8 -46l-187 -150v-2l187 -150z" />
    <glyph glyph-name="logicalnot" unicode="&#xac;" horiz-adv-x="514" 
d="M380 377q-21 17 -51 26.5t-63 9.5q-37 0 -66.5 -14t-50.5 -39t-32 -59.5t-11 -74.5t10.5 -73.5t30.5 -58t48 -38t63 -13.5t66.5 14.5t55.5 37.5v282zM247 -13q-46 0 -84 17.5t-65 49t-41.5 75.5t-14.5 96q0 53 17 97.5t47 77t71.5 50.5t91.5 18q34 0 66 -7.5t55 -18.5
l52 29v-384q0 -25 8 -36t38 -10l-4 -51q-49 -3 -72 15.5t-29 44.5q-26 -27 -59.5 -45t-76.5 -18z" />
    <glyph glyph-name="registered" unicode="&#xae;" horiz-adv-x="729" 
d="M365 -16q-68 0 -127.5 26t-104 70t-70 103.5t-25.5 127.5t25.5 127.5t70 104t104 70.5t127.5 26t127.5 -26t104 -70.5t70 -104t25.5 -127.5t-25.5 -127.5t-70 -103.5t-104 -70t-127.5 -26zM663 311q0 61 -23.5 116t-64 96t-94.5 65t-116 24t-116 -24t-94.5 -65t-64 -96
t-23.5 -116q0 -62 23.5 -116t64 -95t94.5 -64.5t116 -23.5t116 23.5t94.5 64.5t64 95t23.5 116zM297 138h-50v354h114q67 0 101 -29t34 -80q0 -39 -19 -64.5t-51 -37.5l89 -143h-58l-81 131l-79 -4v-127zM359 310q44 1 65.5 19.5t21.5 50.5q0 67 -90 67h-60v-139z" />
    <glyph glyph-name="macron" unicode="&#xaf;" 
d="M73 536l3 45h248l4 -45h-255z" />
    <glyph glyph-name="degree" unicode="&#xb0;" horiz-adv-x="356" 
d="M326 490q0 -30 -10 -56.5t-29.5 -47t-47 -32.5t-61.5 -12t-61.5 12t-46.5 32.5t-29.5 47t-10.5 56.5t10.5 57.5t29.5 48t46.5 32.5t61.5 12t61.5 -12t47 -32.5t29.5 -48t10 -57.5zM283 490q0 45 -27.5 76.5t-77.5 31.5t-77.5 -31.5t-27.5 -76.5q0 -43 27.5 -74.5
t77.5 -31.5t77.5 31.5t27.5 74.5z" />
    <glyph glyph-name="plusminus" unicode="&#xb1;" horiz-adv-x="729" 
d="M365 -16q-68 0 -127.5 25.5t-104 70t-70 104t-25.5 127.5t25.5 127.5t70 104t104 70.5t127.5 26t127.5 -26t104 -70.5t70 -104t25.5 -127.5t-25.5 -127.5t-70 -104t-104 -70t-127.5 -25.5zM663 311q0 61 -23.5 116t-64 96t-94.5 65t-116 24t-116 -24t-94.5 -65t-64 -96
t-23.5 -116q0 -62 23.5 -116t64 -95t94.5 -64.5t116 -23.5t116 23.5t94.5 64.5t64 95t23.5 116zM514 368q0 -61 -38.5 -91.5t-107.5 -30.5h-52v-118h-50v354h107q72 0 106.5 -31.5t34.5 -82.5zM463 366q0 71 -92 71h-55v-146h56q91 2 91 75z" />
    <glyph glyph-name="twosuperior" unicode="&#xb2;" horiz-adv-x="330" 
d="M30 273l-2 45q48 43 85.5 74.5t63 57.5t38.5 48.5t13 46.5q0 32 -22 50.5t-58 18.5q-26 0 -51.5 -11.5t-45.5 -28.5l-19 41q20 17 52.5 30t70.5 13q58 0 92 -30t34 -80q0 -27 -12 -51t-36.5 -50.5t-61 -57.5t-84.5 -72h8.5h23h33h38.5h103l2 -44h-265z" />
    <glyph glyph-name="threesuperior" unicode="&#xb3;" horiz-adv-x="330" 
d="M174 472q61 0 91 -27.5t30 -64.5q0 -27 -12 -48.5t-32 -36t-47.5 -22.5t-58.5 -8q-29 0 -60.5 7t-51.5 18l10 43q20 -10 47 -17.5t57 -7.5q19 0 36 4.5t30 13t21 21.5t8 30q0 29 -24.5 47.5t-71.5 18.5q-14 -1 -29.5 -2.5t-28.5 -3.5v39q65 14 102 33.5t37 51.5
q0 26 -20.5 40t-55.5 14q-25 0 -51.5 -10t-46.5 -26l-20 41q23 16 55 27t66 11q57 0 91.5 -24t34.5 -67q0 -68 -106 -95z" />
    <glyph glyph-name="acute" unicode="&#xb4;" horiz-adv-x="396" 
d="M177 518h-46l118 179h80z" />
    <glyph glyph-name="mu" unicode="&#xb5;" horiz-adv-x="515" 
d="M443 -8q0 -61 -14 -104.5t-40 -71.5t-63.5 -41t-83.5 -13q-48 0 -84 9.5t-67 23.5l16 57q27 -14 60.5 -23.5t74.5 -9.5q67 0 103 40t36 130v55q-23 -21 -56.5 -38.5t-76.5 -17.5q-46 0 -84 17.5t-65 49t-42 75t-15 95.5q0 53 17 97.5t47.5 77t72 50.5t91.5 18
q34 0 66 -7.5t55 -18.5l52 29v-479zM381 377q-21 17 -51 26.5t-63 9.5q-37 0 -66.5 -14t-50.5 -39t-32.5 -59.5t-11.5 -74.5t11 -73.5t31 -57.5t48 -37.5t63 -13.5t66.5 14.5t55.5 37.5v281z" />
    <glyph glyph-name="paragraph" unicode="&#xb6;" horiz-adv-x="501" 
d="M354 263q-15 -4 -36 -6.5t-39 -2.5q-59 0 -103 14t-73 38.5t-43 57.5t-14 72q0 47 17 82.5t48 59t73.5 35.5t93.5 12h130v-689h-54v327v0z" />
    <glyph glyph-name="periodcentered" unicode="&#xb7;" horiz-adv-x="187" 
d="M144 229q0 -20 -14 -36t-36 -16t-36 16t-14 36t14 35t36 15t36 -15t14 -35z" />
    <glyph glyph-name="cedilla" unicode="&#xb8;" 
d="M190 -68q54 2 88 -19t34 -63t-39 -71.5t-121 -38.5l-5 42q58 3 86.5 20t28.5 43q0 32 -34.5 42.5t-96.5 -0.5l-6 30l115 113h50l-100 -98v0z" />
    <glyph glyph-name="onesuperior" unicode="&#xb9;" horiz-adv-x="330" 
d="M165 596l-100 -25l-2 45l154 39v-382h-52v323z" />
    <glyph glyph-name="ordmasculine" unicode="&#xba;" horiz-adv-x="423" 
d="M390 445q0 -44 -14 -79.5t-38 -61t-57 -39.5t-71 -14t-70.5 13.5t-56 38.5t-37 61t-13.5 80t14 79.5t38 61t57 39.5t72 14q38 0 70.5 -13.5t56 -38.5t36.5 -61t13 -80zM340 443q0 67 -35 108t-93 41q-59 0 -93.5 -41t-34.5 -106q0 -66 35 -107t93 -41q59 0 93.5 41
t34.5 105z" />
    <glyph glyph-name="guillemotright" unicode="&#xbb;" horiz-adv-x="576" 
d="M317 37l-8 46l187 150v2l-187 150l8 46l234 -166v-62zM45 26l-8 48l196 159v2l-196 159l8 48l245 -175v-66z" />
    <glyph glyph-name="questiondown" unicode="&#xbf;" horiz-adv-x="349" 
d="M39 148q0 31 9 53t24 37t34 25.5t39 18.5q36 16 56.5 29.5t20.5 38.5q0 23 -16.5 44t-42.5 41l32 11q29 -17 53 -44t24 -60q0 -22 -7.5 -38.5t-20.5 -28.5t-30.5 -21.5t-37.5 -17.5q-18 -7 -33.5 -14.5t-27 -17.5t-18 -23.5t-6.5 -31.5q0 -21 9 -40.5t26.5 -34
t42.5 -23.5t58 -9q20 0 37 3t32 6v-57q-14 -4 -31 -6.5t-40 -2.5q-44 0 -78.5 14t-58.5 37t-36.5 52.5t-12.5 59.5zM151 585q0 20 13.5 36t36.5 16q22 0 36 -16t14 -36t-14 -35t-36 -15q-23 0 -36.5 15t-13.5 35z" />
    <glyph glyph-name="Agrave" unicode="&#xc0;" horiz-adv-x="575" 
d="M560 0h-65l-66 179h-283l-66 -179h-65l237 625h75zM288 562l-120 -325h239zM262 685l-152 179h80l118 -179h-46z" />
    <glyph glyph-name="Aacute" unicode="&#xc1;" horiz-adv-x="575" 
d="M560 0h-65l-66 179h-283l-66 -179h-65l237 625h75zM288 562l-120 -325h239zM306 685h-46l118 179h80z" />
    <glyph glyph-name="Acircumflex" unicode="&#xc2;" horiz-adv-x="575" 
d="M560 0h-65l-66 179h-283l-66 -179h-65l237 625h75zM288 562l-120 -325h239zM390 685l-100 135h-1l-101 -135h-47l113 182h70l113 -182h-47z" />
    <glyph glyph-name="Atilde" unicode="&#xc3;" horiz-adv-x="575" 
d="M560 0h-65l-66 179h-283l-66 -179h-65l237 625h75zM288 562l-120 -325h239zM451 804q-8 -59 -29.5 -87t-59.5 -28q-22 0 -43 11t-40 24.5t-36 24.5t-31 11q-15 0 -25 -13.5t-20 -51.5h-41q8 59 29.5 87t59.5 28q22 0 43 -11.5t40.5 -25t36.5 -24.5t31 -11t24.5 13.5
t19.5 52.5h41z" />
    <glyph glyph-name="Adieresis" unicode="&#xc4;" horiz-adv-x="575" 
d="M560 0h-65l-66 179h-283l-66 -179h-65l237 625h75zM288 562l-120 -325h239zM431 760q0 -20 -13 -35t-34 -15q-22 0 -35.5 15t-13.5 35t13.5 34.5t35.5 14.5q21 0 34 -14.5t13 -34.5zM238 760q0 -20 -13 -35t-35 -15q-21 0 -34 15t-13 35t13 34.5t34 14.5q22 0 35 -14.5
t13 -34.5z" />
    <glyph glyph-name="Aring" unicode="&#xc5;" horiz-adv-x="575" 
d="M289 562l-121 -325h240zM239 593q-32 12 -50 37t-18 57q0 42 31.5 73t86.5 31t86 -31t32 -73q0 -32 -18 -57t-50 -37l221 -593h-65l-66 179h-282l-67 -179h-65zM364 686q0 28 -20 48.5t-55 20.5q-34 0 -54 -20t-20 -47q0 -28 20 -48t54 -20q35 0 55 19.5t20 46.5z" />
    <glyph glyph-name="AE" unicode="&#xc6;" horiz-adv-x="818" 
d="M394 233v336l-192 -336h192zM69 0h-68l358 625h413v-59h-314v-223h262v-59h-262v-225h314v-59h-378v174h-226z" />
    <glyph glyph-name="Ccedilla" unicode="&#xc7;" horiz-adv-x="586" 
d="M319 -12q-62 5 -112 29.5t-85.5 66.5t-55 99.5t-19.5 127.5q0 75 22.5 135t63 103t95.5 66t121 23q57 0 107.5 -15t85.5 -36l-20 -57q-38 24 -81 37t-93 13q-51 0 -94.5 -18t-75 -52t-49 -83.5t-17.5 -113.5q0 -62 17 -111.5t48.5 -84.5t75 -53.5t97.5 -18.5q51 0 97 16
t78 40l12 -63q-32 -20 -75.5 -34t-92.5 -16l-57 -56q54 2 88 -19t34 -63t-39 -71.5t-121 -38.5l-5 42q58 3 86.5 20t28.5 43q0 32 -34.5 42.5t-96.5 -0.5l-6 30l72 71v0z" />
    <glyph glyph-name="Egrave" unicode="&#xc8;" horiz-adv-x="507" 
d="M80 0v625h378v-59h-314v-224h262v-58h-262v-225h314v-59h-378zM256 685l-152 179h80l118 -179h-46z" />
    <glyph glyph-name="Eacute" unicode="&#xc9;" horiz-adv-x="507" 
d="M80 0v625h378v-59h-314v-224h262v-58h-262v-225h314v-59h-378zM265 685h-46l118 179h80z" />
    <glyph glyph-name="Ecircumflex" unicode="&#xca;" horiz-adv-x="507" 
d="M80 0v625h378v-59h-314v-224h262v-58h-262v-225h314v-59h-378zM371 685l-100 135h-1l-101 -135h-47l113 182h70l113 -182h-47z" />
    <glyph glyph-name="Edieresis" unicode="&#xcb;" horiz-adv-x="507" 
d="M80 0v625h378v-59h-314v-224h262v-58h-262v-225h314v-59h-378zM409 760q0 -20 -13 -35t-34 -15q-22 0 -35.5 15t-13.5 35t13.5 34.5t35.5 14.5q21 0 34 -14.5t13 -34.5zM216 760q0 -20 -13 -35t-35 -15q-21 0 -34 15t-13 35t13 34.5t34 14.5q22 0 35 -14.5t13 -34.5z" />
    <glyph glyph-name="Igrave" unicode="&#xcc;" horiz-adv-x="228" 
d="M82 0v625h63v-625h-63zM97 685l-152 179h80l118 -179h-46z" />
    <glyph glyph-name="Iacute" unicode="&#xcd;" horiz-adv-x="228" 
d="M82 0v625h63v-625h-63zM134 685h-46l118 179h80z" />
    <glyph glyph-name="Icircumflex" unicode="&#xce;" horiz-adv-x="228" 
d="M82 0v625h63v-625h-63zM216 685l-100 135h-1l-101 -135h-47l113 182h70l113 -182h-47z" />
    <glyph glyph-name="Idieresis" unicode="&#xcf;" horiz-adv-x="228" 
d="M82 0v625h63v-625h-63zM259 760q0 -20 -13 -35t-34 -15q-22 0 -35.5 15t-13.5 35t13.5 34.5t35.5 14.5q21 0 34 -14.5t13 -34.5zM66 760q0 -20 -13 -35t-35 -15q-21 0 -34 15t-13 35t13 34.5t34 14.5q22 0 35 -14.5t13 -34.5z" />
    <glyph glyph-name="Eth" unicode="&#xd0;" horiz-adv-x="646" 
d="M339 343v-56h-175v-228h104q60 0 109.5 15.5t85 47t55 79t19.5 111.5q0 120 -71 187t-200 67h-102v-223h175zM16 287v56h84v282h170q77 0 138.5 -22.5t104 -63t65.5 -97t23 -125.5q0 -74 -22.5 -132.5t-65.5 -99.5t-105.5 -63t-142.5 -22h-165v287h-84z" />
    <glyph glyph-name="Ntilde" unicode="&#xd1;" horiz-adv-x="650" 
d="M507 625h62v-631h-69l-358 541v-535h-62v625h72l355 -536v536zM488 804q-8 -59 -29.5 -87t-59.5 -28q-22 0 -43 11t-40 24.5t-36 24.5t-31 11q-15 0 -25 -13.5t-20 -51.5h-41q8 59 29.5 87t59.5 28q22 0 43 -11.5t40.5 -25t36.5 -24.5t31 -11t24.5 13.5t19.5 52.5h41z
" />
    <glyph glyph-name="Ograve" unicode="&#xd2;" horiz-adv-x="709" 
d="M662 315q0 -72 -23 -132t-64 -103.5t-97.5 -68t-123.5 -24.5q-65 0 -121.5 23.5t-97.5 66t-64.5 102.5t-23.5 132t23 132t64 103.5t97.5 67.5t123.5 24q65 0 121 -23.5t97.5 -66t65 -102t23.5 -131.5zM597 311q0 60 -18 110t-50.5 85.5t-77.5 55t-98 19.5t-97 -19.5
t-76 -54.5t-50 -84t-18 -108q0 -60 18.5 -110t51 -86t77.5 -55.5t98 -19.5q52 0 96 19.5t76 54.5t50 84.5t18 108.5zM341 685l-152 179h80l118 -179h-46z" />
    <glyph glyph-name="Oacute" unicode="&#xd3;" horiz-adv-x="709" 
d="M662 315q0 -72 -23 -132t-64 -103.5t-97.5 -68t-123.5 -24.5q-65 0 -121.5 23.5t-97.5 66t-64.5 102.5t-23.5 132t23 132t64 103.5t97.5 67.5t123.5 24q65 0 121 -23.5t97.5 -66t65 -102t23.5 -131.5zM597 311q0 60 -18 110t-50.5 85.5t-77.5 55t-98 19.5t-97 -19.5
t-76 -54.5t-50 -84t-18 -108q0 -60 18.5 -110t51 -86t77.5 -55.5t98 -19.5q52 0 96 19.5t76 54.5t50 84.5t18 108.5zM371 685h-46l118 179h80z" />
    <glyph glyph-name="Ocircumflex" unicode="&#xd4;" horiz-adv-x="709" 
d="M662 315q0 -72 -23 -132t-64 -103.5t-97.5 -68t-123.5 -24.5q-65 0 -121.5 23.5t-97.5 66t-64.5 102.5t-23.5 132t23 132t64 103.5t97.5 67.5t123.5 24q65 0 121 -23.5t97.5 -66t65 -102t23.5 -131.5zM597 311q0 60 -18 110t-50.5 85.5t-77.5 55t-98 19.5t-97 -19.5
t-76 -54.5t-50 -84t-18 -108q0 -60 18.5 -110t51 -86t77.5 -55.5t98 -19.5q52 0 96 19.5t76 54.5t50 84.5t18 108.5zM457 685l-100 135h-1l-101 -135h-47l113 182h70l113 -182h-47z" />
    <glyph glyph-name="Otilde" unicode="&#xd5;" horiz-adv-x="709" 
d="M662 315q0 -72 -23 -132t-64 -103.5t-97.5 -68t-123.5 -24.5q-65 0 -121.5 23.5t-97.5 66t-64.5 102.5t-23.5 132t23 132t64 103.5t97.5 67.5t123.5 24q65 0 121 -23.5t97.5 -66t65 -102t23.5 -131.5zM597 311q0 60 -18 110t-50.5 85.5t-77.5 55t-98 19.5t-97 -19.5
t-76 -54.5t-50 -84t-18 -108q0 -60 18.5 -110t51 -86t77.5 -55.5t98 -19.5q52 0 96 19.5t76 54.5t50 84.5t18 108.5zM518 804q-8 -59 -29.5 -87t-59.5 -28q-22 0 -43 11t-40 24.5t-36 24.5t-31 11q-15 0 -25 -13.5t-20 -51.5h-41q8 59 29.5 87t59.5 28q22 0 43 -11.5
t40.5 -25t36.5 -24.5t31 -11t24.5 13.5t19.5 52.5h41z" />
    <glyph glyph-name="Odieresis" unicode="&#xd6;" horiz-adv-x="709" 
d="M662 315q0 -72 -23 -132t-64 -103.5t-97.5 -68t-123.5 -24.5q-65 0 -121.5 23.5t-97.5 66t-64.5 102.5t-23.5 132t23 132t64 103.5t97.5 67.5t123.5 24q65 0 121 -23.5t97.5 -66t65 -102t23.5 -131.5zM597 311q0 60 -18 110t-50.5 85.5t-77.5 55t-98 19.5t-97 -19.5
t-76 -54.5t-50 -84t-18 -108q0 -60 18.5 -110t51 -86t77.5 -55.5t98 -19.5q52 0 96 19.5t76 54.5t50 84.5t18 108.5zM500 760q0 -20 -13 -35t-34 -15q-22 0 -35.5 15t-13.5 35t13.5 34.5t35.5 14.5q21 0 34 -14.5t13 -34.5zM307 760q0 -20 -13 -35t-35 -15q-21 0 -34 15
t-13 35t13 34.5t34 14.5q22 0 35 -14.5t13 -34.5z" />
    <glyph glyph-name="multiply" unicode="&#xd7;" horiz-adv-x="486" 
d="M413 28l-168 169l-169 -169l-37 37l169 169l-169 168l37 37l169 -169l169 170l37 -37l-170 -169l169 -169z" />
    <glyph glyph-name="Oslash" unicode="&#xd8;" horiz-adv-x="709" 
d="M663 315q0 -71 -23 -131.5t-64 -104t-97 -68t-123 -24.5q-39 0 -75 9t-68 25l-50 -88h-52q18 30 32 55q6 11 11.5 20.5t10.5 17.5q5 9 10 17q-58 43 -92 111.5t-34 156.5q0 72 23 132t64 103.5t97.5 67.5t123.5 24q39 0 74.5 -9t67.5 -25l51 88h52l-64 -110
q57 -42 91 -110.5t34 -156.5zM470 553q-53 28 -116 28q-53 0 -97 -19.5t-76 -54.5t-50 -84t-18 -108q0 -71 25 -126.5t68 -91.5zM242 72q54 -28 116 -28q52 0 96.5 19.5t76 54.5t49.5 84.5t18 108.5q0 70 -24.5 126t-66.5 91z" />
    <glyph glyph-name="Ugrave" unicode="&#xd9;" horiz-adv-x="616" 
d="M544 239q0 -58 -15 -104.5t-45 -79.5t-74.5 -50.5t-102.5 -17.5q-56 0 -99.5 17t-73.5 48.5t-45.5 76t-15.5 100.5v396h62v-388q0 -90 43.5 -140.5t131.5 -50.5q84 0 127.5 49t43.5 143v387h63v-386zM301 685l-152 179h80l118 -179h-46z" />
    <glyph glyph-name="Uacute" unicode="&#xda;" horiz-adv-x="616" 
d="M544 239q0 -58 -15 -104.5t-45 -79.5t-74.5 -50.5t-102.5 -17.5q-56 0 -99.5 17t-73.5 48.5t-45.5 76t-15.5 100.5v396h62v-388q0 -90 43.5 -140.5t131.5 -50.5q84 0 127.5 49t43.5 143v387h63v-386zM312 685h-46l118 179h80z" />
    <glyph glyph-name="Ucircumflex" unicode="&#xdb;" horiz-adv-x="616" 
d="M544 239q0 -58 -15 -104.5t-45 -79.5t-74.5 -50.5t-102.5 -17.5q-56 0 -99.5 17t-73.5 48.5t-45.5 76t-15.5 100.5v396h62v-388q0 -90 43.5 -140.5t131.5 -50.5q84 0 127.5 49t43.5 143v387h63v-386zM410 685l-100 135h-1l-101 -135h-47l113 182h70l113 -182h-47z" />
    <glyph glyph-name="Udieresis" unicode="&#xdc;" horiz-adv-x="616" 
d="M544 239q0 -58 -15 -104.5t-45 -79.5t-74.5 -50.5t-102.5 -17.5q-56 0 -99.5 17t-73.5 48.5t-45.5 76t-15.5 100.5v396h62v-388q0 -90 43.5 -140.5t131.5 -50.5q84 0 127.5 49t43.5 143v387h63v-386zM453 760q0 -20 -13 -35t-34 -15q-22 0 -35.5 15t-13.5 35t13.5 34.5
t35.5 14.5q21 0 34 -14.5t13 -34.5zM260 760q0 -20 -13 -35t-35 -15q-21 0 -34 15t-13 35t13 34.5t34 14.5q22 0 35 -14.5t13 -34.5z" />
    <glyph glyph-name="Yacute" unicode="&#xdd;" horiz-adv-x="524" 
d="M294 251v-251h-64v251l-218 374h72l180 -311l177 311h71zM274 685h-46l118 179h80z" />
    <glyph glyph-name="Thorn" unicode="&#xde;" horiz-adv-x="516" 
d="M481 322q0 -103 -67.5 -155t-184.5 -54l-85 -1v-112h-64v625h64v-107h93q62 0 108 -14.5t76 -40t45 -62t15 -79.5zM415 320q0 67 -46 103t-134 36h-91v-287l89 1q89 2 135.5 37.5t46.5 109.5z" />
    <glyph glyph-name="germandbls" unicode="&#xdf;" horiz-adv-x="549" 
d="M85 399l-74 5l4 39l69 16v30q0 11 0.5 20t0.5 8q0 49 14 83t37 55.5t53 31t63 9.5q37 0 67 -11.5t51 -31.5t32.5 -47.5t11.5 -59.5q0 -33 -14.5 -56.5t-31.5 -42.5t-31.5 -35.5t-14.5 -33.5q0 -26 14.5 -44t36 -33t47 -29.5t47 -33.5t36 -45t14.5 -64q0 -67 -44 -104.5
t-115 -37.5q-38 0 -76 11t-67 30l17 57q29 -20 61.5 -32t65.5 -12q42 0 68.5 20.5t26.5 62.5q0 30 -14 49.5t-35.5 35t-46 29t-46 30.5t-35.5 40t-14 58q0 31 13.5 51.5t30 38.5t30 37t13.5 48q0 45 -25.5 73t-72.5 28q-50 0 -78 -31t-28 -88v-523h-61v399z" />
    <glyph glyph-name="agrave" unicode="&#xe0;" horiz-adv-x="439" 
d="M205 518l-152 179h80l118 -179h-46zM311 235q-59 -7 -99.5 -17t-66 -24t-36.5 -32t-11 -41q0 -37 26.5 -58.5t67.5 -21.5q37 0 67.5 18t51.5 42v134zM312 55q-23 -29 -58 -48.5t-76 -19.5q-32 0 -58.5 9.5t-45.5 26.5t-30 40.5t-11 50.5q0 31 13.5 58.5t45.5 49.5
t85.5 36t133.5 19v27q0 54 -25.5 81.5t-82.5 27.5q-19 0 -39 -4.5t-40 -12t-38 -17.5t-33 -21l-14 58q15 11 35 21t42.5 17.5t46 12t46.5 4.5q79 0 122 -38.5t42 -125.5v-220q0 -25 8 -36t38 -10l-4 -51q-45 -3 -70 14t-30 51h-3z" />
    <glyph glyph-name="aacute" unicode="&#xe1;" horiz-adv-x="439" 
d="M311 235q-59 -7 -99.5 -17t-66 -24t-36.5 -32t-11 -41q0 -37 26.5 -58.5t67.5 -21.5q37 0 67.5 18t51.5 42v134zM312 55q-23 -29 -58 -48.5t-76 -19.5q-32 0 -58.5 9.5t-45.5 26.5t-30 40.5t-11 50.5q0 31 13.5 58.5t45.5 49.5t85.5 36t133.5 19v27q0 54 -25.5 81.5
t-82.5 27.5q-19 0 -39 -4.5t-40 -12t-38 -17.5t-33 -21l-14 58q15 11 35 21t42.5 17.5t46 12t46.5 4.5q79 0 122 -38.5t42 -125.5v-220q0 -25 8 -36t38 -10l-4 -51q-45 -3 -70 14t-30 51h-3zM208 518h-46l118 179h80z" />
    <glyph glyph-name="acircumflex" unicode="&#xe2;" horiz-adv-x="439" 
d="M311 235q-59 -7 -99.5 -17t-66 -24t-36.5 -32t-11 -41q0 -37 26.5 -58.5t67.5 -21.5q37 0 67.5 18t51.5 42v134zM312 55q-23 -29 -58 -48.5t-76 -19.5q-32 0 -58.5 9.5t-45.5 26.5t-30 40.5t-11 50.5q0 31 13.5 58.5t45.5 49.5t85.5 36t133.5 19v27q0 54 -25.5 81.5
t-82.5 27.5q-19 0 -39 -4.5t-40 -12t-38 -17.5t-33 -21l-14 58q15 11 35 21t42.5 17.5t46 12t46.5 4.5q79 0 122 -38.5t42 -125.5v-220q0 -25 8 -36t38 -10l-4 -51q-45 -3 -70 14t-30 51h-3zM311 518l-100 135h-1l-101 -135h-47l113 182h70l113 -182h-47z" />
    <glyph glyph-name="atilde" unicode="&#xe3;" horiz-adv-x="439" 
d="M311 235q-59 -7 -99.5 -17t-66 -24t-36.5 -32t-11 -41q0 -37 26.5 -58.5t67.5 -21.5q37 0 67.5 18t51.5 42v134zM312 55q-23 -29 -58 -48.5t-76 -19.5q-32 0 -58.5 9.5t-45.5 26.5t-30 40.5t-11 50.5q0 31 13.5 58.5t45.5 49.5t85.5 36t133.5 19v27q0 54 -25.5 81.5
t-82.5 27.5q-19 0 -39 -4.5t-40 -12t-38 -17.5t-33 -21l-14 58q15 11 35 21t42.5 17.5t46 12t46.5 4.5q79 0 122 -38.5t42 -125.5v-220q0 -25 8 -36t38 -10l-4 -51q-45 -3 -70 14t-30 51h-3zM372 637q-8 -59 -29.5 -87t-59.5 -28q-22 0 -43 11t-40 24.5t-36 24.5t-31 11
q-15 0 -25 -13.5t-20 -51.5h-41q8 59 29.5 87t59.5 28q22 0 43 -11.5t40.5 -25t36.5 -24.5t31 -11t24.5 13.5t19.5 52.5h41z" />
    <glyph glyph-name="adieresis" unicode="&#xe4;" horiz-adv-x="439" 
d="M311 235q-59 -7 -99.5 -17t-66 -24t-36.5 -32t-11 -41q0 -37 26.5 -58.5t67.5 -21.5q37 0 67.5 18t51.5 42v134zM312 55q-23 -29 -58 -48.5t-76 -19.5q-32 0 -58.5 9.5t-45.5 26.5t-30 40.5t-11 50.5q0 31 13.5 58.5t45.5 49.5t85.5 36t133.5 19v27q0 54 -25.5 81.5
t-82.5 27.5q-19 0 -39 -4.5t-40 -12t-38 -17.5t-33 -21l-14 58q15 11 35 21t42.5 17.5t46 12t46.5 4.5q79 0 122 -38.5t42 -125.5v-220q0 -25 8 -36t38 -10l-4 -51q-45 -3 -70 14t-30 51h-3zM354 593q0 -20 -13 -35t-34 -15q-22 0 -35.5 15t-13.5 35t13.5 34.5t35.5 14.5
q21 0 34 -14.5t13 -34.5zM161 593q0 -20 -13 -35t-35 -15q-21 0 -34 15t-13 35t13 34.5t34 14.5q22 0 35 -14.5t13 -34.5z" />
    <glyph glyph-name="aring" unicode="&#xe5;" horiz-adv-x="439" 
d="M311 235q-59 -7 -99.5 -17t-66 -24t-36.5 -32t-11 -41q0 -37 26.5 -58.5t67.5 -21.5q37 0 67.5 18t51.5 42v134zM312 55q-23 -29 -58 -48.5t-76 -19.5q-32 0 -58.5 9.5t-45.5 26.5t-30 40.5t-11 50.5q0 31 13.5 58.5t45.5 49.5t85.5 36t133.5 19v27q0 54 -25.5 81.5
t-82.5 27.5q-19 0 -39 -4.5t-40 -12t-38 -17.5t-33 -21l-14 58q15 11 35 21t42.5 17.5t46 12t46.5 4.5q79 0 122 -38.5t42 -125.5v-220q0 -25 8 -36t38 -10l-4 -51q-45 -3 -70 14t-30 51h-3zM329 618q0 -43 -31.5 -73t-87.5 -30q-55 0 -86.5 30t-31.5 73q0 42 31.5 73
t86.5 31q56 0 87 -31t32 -73zM285 617q0 28 -20 48.5t-55 20.5q-33 0 -53 -20t-20 -47q0 -28 20 -48t53 -20q35 0 55 19.5t20 46.5z" />
    <glyph glyph-name="ae" unicode="&#xe6;" horiz-adv-x="737" 
d="M346 85q-14 -21 -33.5 -38.5t-42.5 -31t-48.5 -21t-51.5 -7.5q-31 0 -56.5 9.5t-43.5 26.5t-27.5 39.5t-9.5 48.5q0 33 14.5 61t47.5 49.5t86 34.5t130 16l1 25q2 60 -25.5 87.5t-85.5 27.5q-38 0 -77 -16t-69 -38l-17 55q30 22 75 40t93 18q123 0 150 -88q27 40 70.5 64
t97.5 24q76 0 121.5 -45.5t45.5 -123.5q0 -18 -2.5 -38t-7.5 -35l-310 -2v-5q1 -39 12.5 -71.5t32.5 -56t50 -36.5t65 -13q38 0 72.5 10.5t60.5 27.5l12 -57q-29 -18 -66.5 -28.5t-80.5 -10.5q-61 0 -108 26.5t-75 71.5zM629 277q2 10 2 20q0 53 -28.5 85.5t-82.5 32.5
q-31 0 -56 -11t-43.5 -30t-30 -44.5t-15.5 -53.5zM310 229q-60 -4 -100.5 -13.5t-65.5 -24t-36 -33t-11 -40.5q0 -36 24.5 -55.5t64.5 -19.5q34 0 73.5 20t68.5 57q-4 10 -7 23.5t-5.5 28.5t-4 30t-1.5 27z" />
    <glyph glyph-name="ccedilla" unicode="&#xe7;" horiz-adv-x="451" 
d="M240 -12q-46 4 -82.5 23.5t-62 51t-39.5 73.5t-14 92q0 54 17 98.5t47 76.5t71 50t90 18q42 0 78 -10t65 -29l-16 -56q-26 17 -58.5 27t-68.5 10q-37 0 -67 -13.5t-51 -37.5t-32 -57.5t-11 -74.5q0 -42 11.5 -76t33 -58.5t51.5 -37.5t66 -13q35 0 68 10.5t59 27.5l13 -57
q-25 -15 -55 -25t-63 -13l-57 -56q54 2 88 -19t34 -63t-39 -71.5t-121 -38.5l-5 42q58 3 86.5 20t28.5 43q0 32 -34.5 42.5t-96.5 -0.5l-6 30l72 71v0z" />
    <glyph glyph-name="egrave" unicode="&#xe8;" horiz-adv-x="470" 
d="M238 518l-152 179h80l118 -179h-46zM105 222q1 -39 12.5 -71.5t32.5 -56t50 -36.5t65 -13q38 0 72.5 10.5t60.5 27.5l12 -57q-29 -18 -66.5 -28.5t-80.5 -10.5q-50 0 -90.5 17.5t-69.5 49t-45 75.5t-16 96q0 54 16.5 99t45 78t68 51t86.5 18q76 0 121.5 -45.5
t45.5 -123.5q0 -18 -2.5 -38t-7.5 -35l-310 -2v-5zM363 277q1 4 1 10v10q0 53 -28 85.5t-82 32.5q-31 0 -56 -11t-43.5 -30t-30 -44.5t-15.5 -53.5z" />
    <glyph glyph-name="eacute" unicode="&#xe9;" horiz-adv-x="470" 
d="M105 222q1 -39 12.5 -71.5t32.5 -56t50 -36.5t65 -13q38 0 72.5 10.5t60.5 27.5l12 -57q-29 -18 -66.5 -28.5t-80.5 -10.5q-50 0 -90.5 17.5t-69.5 49t-45 75.5t-16 96q0 54 16.5 99t45 78t68 51t86.5 18q76 0 121.5 -45.5t45.5 -123.5q0 -18 -2.5 -38t-7.5 -35l-310 -2
v-5zM363 277q1 4 1 10v10q0 53 -28 85.5t-82 32.5q-31 0 -56 -11t-43.5 -30t-30 -44.5t-15.5 -53.5zM257 518h-46l118 179h80z" />
    <glyph glyph-name="ecircumflex" unicode="&#xea;" horiz-adv-x="470" 
d="M105 222q1 -39 12.5 -71.5t32.5 -56t50 -36.5t65 -13q38 0 72.5 10.5t60.5 27.5l12 -57q-29 -18 -66.5 -28.5t-80.5 -10.5q-50 0 -90.5 17.5t-69.5 49t-45 75.5t-16 96q0 54 16.5 99t45 78t68 51t86.5 18q76 0 121.5 -45.5t45.5 -123.5q0 -18 -2.5 -38t-7.5 -35l-310 -2
v-5zM363 277q1 4 1 10v10q0 53 -28 85.5t-82 32.5q-31 0 -56 -11t-43.5 -30t-30 -44.5t-15.5 -53.5zM334 518l-100 135h-1l-101 -135h-47l113 182h70l113 -182h-47z" />
    <glyph glyph-name="edieresis" unicode="&#xeb;" horiz-adv-x="470" 
d="M105 222q1 -39 12.5 -71.5t32.5 -56t50 -36.5t65 -13q38 0 72.5 10.5t60.5 27.5l12 -57q-29 -18 -66.5 -28.5t-80.5 -10.5q-50 0 -90.5 17.5t-69.5 49t-45 75.5t-16 96q0 54 16.5 99t45 78t68 51t86.5 18q76 0 121.5 -45.5t45.5 -123.5q0 -18 -2.5 -38t-7.5 -35l-310 -2
v-5zM363 277q1 4 1 10v10q0 53 -28 85.5t-82 32.5q-31 0 -56 -11t-43.5 -30t-30 -44.5t-15.5 -53.5zM382 593q0 -20 -13 -35t-34 -15q-22 0 -35.5 15t-13.5 35t13.5 34.5t35.5 14.5q21 0 34 -14.5t13 -34.5zM189 593q0 -20 -13 -35t-35 -15q-21 0 -34 15t-13 35t13 34.5
t34 14.5q22 0 35 -14.5t13 -34.5z" />
    <glyph glyph-name="igrave" unicode="&#xec;" horiz-adv-x="209" 
d="M87 518l-152 179h80l118 -179h-46zM75 0v453l62 13v-466h-62z" />
    <glyph glyph-name="iacute" unicode="&#xed;" horiz-adv-x="209" 
d="M123 518h-46l118 179h80zM75 0v453l62 13v-466h-62z" />
    <glyph glyph-name="icircumflex" unicode="&#xee;" horiz-adv-x="209" 
d="M75 0v453l62 13v-466h-62zM208 518l-100 135h-1l-101 -135h-47l113 182h70l113 -182h-47z" />
    <glyph glyph-name="idieresis" unicode="&#xef;" horiz-adv-x="209" 
d="M251 593q0 -20 -13 -35t-34 -15q-22 0 -35.5 15t-13.5 35t13.5 34.5t35.5 14.5q21 0 34 -14.5t13 -34.5zM58 593q0 -20 -13 -35t-35 -15q-21 0 -34 15t-13 35t13 34.5t34 14.5q22 0 35 -14.5t13 -34.5zM75 0v453l62 13v-466h-62z" />
    <glyph glyph-name="eth" unicode="&#xf0;" horiz-adv-x="525" 
d="M482 245q0 -55 -14 -102t-41.5 -81.5t-69 -54.5t-96.5 -20q-49 0 -89 16.5t-69 46t-45 69.5t-16 88q0 54 17.5 96.5t46.5 71.5t66 44t76 15q48 0 82.5 -16t59.5 -38h1q-9 21 -23 44.5t-32 47.5t-38 47.5t-41 44.5l-117 -32l-12 46l91 25q-21 20 -43 39t-45 37l34 8
q13 3 23.5 6t11.5 3q43 -33 85 -75l105 28l12 -46q-22 -7 -40 -11l-40 -10q35 -39 64.5 -80.5t50.5 -84.5t33 -86.5t12 -85.5zM421 235q0 26 -5 50t-13 44q-21 21 -60 35t-83 14q-34 0 -62 -11.5t-48 -33t-31 -52t-11 -67.5q0 -39 11.5 -70.5t32 -54t49 -34.5t62.5 -12
q75 0 116.5 51t41.5 141z" />
    <glyph glyph-name="ntilde" unicode="&#xf1;" horiz-adv-x="505" 
d="M374 0v296q0 60 -24.5 88t-76.5 28q-38 0 -74 -18t-65 -47v-347h-62v458l62 13v-75q36 36 78 55.5t78 19.5q69 0 107.5 -41t38.5 -116v-314h-62zM416 637q-8 -59 -29.5 -87t-59.5 -28q-22 0 -43 11t-40 24.5t-36 24.5t-31 11q-15 0 -25 -13.5t-20 -51.5h-41q8 59 29.5 87
t59.5 28q22 0 43 -11.5t40.5 -25t36.5 -24.5t31 -11t24.5 13.5t19.5 52.5h41z" />
    <glyph glyph-name="ograve" unicode="&#xf2;" horiz-adv-x="531" 
d="M265 518l-152 179h80l118 -179h-46zM488 230q0 -55 -17.5 -99.5t-47.5 -76.5t-71 -49.5t-89 -17.5t-88.5 17t-70 48.5t-46 76t-16.5 99.5t17.5 99.5t47.5 76.5t71.5 49.5t89.5 17.5t88.5 -17t69.5 -48.5t45.5 -76t16.5 -99.5zM427 228q0 42 -11.5 76.5t-33 59t-51.5 38
t-66 13.5t-66 -13.5t-51 -38.5t-32.5 -59t-11.5 -74q0 -42 11.5 -76.5t33 -59t51.5 -38t66 -13.5t66 13.5t51 38.5t32.5 58.5t11.5 74.5z" />
    <glyph glyph-name="oacute" unicode="&#xf3;" horiz-adv-x="531" 
d="M488 230q0 -55 -17.5 -99.5t-47.5 -76.5t-71 -49.5t-89 -17.5t-88.5 17t-70 48.5t-46 76t-16.5 99.5t17.5 99.5t47.5 76.5t71.5 49.5t89.5 17.5t88.5 -17t69.5 -48.5t45.5 -76t16.5 -99.5zM427 228q0 42 -11.5 76.5t-33 59t-51.5 38t-66 13.5t-66 -13.5t-51 -38.5
t-32.5 -59t-11.5 -74q0 -42 11.5 -76.5t33 -59t51.5 -38t66 -13.5t66 13.5t51 38.5t32.5 58.5t11.5 74.5zM270 518h-46l118 179h80z" />
    <glyph glyph-name="ocircumflex" unicode="&#xf4;" horiz-adv-x="531" 
d="M488 230q0 -55 -17.5 -99.5t-47.5 -76.5t-71 -49.5t-89 -17.5t-88.5 17t-70 48.5t-46 76t-16.5 99.5t17.5 99.5t47.5 76.5t71.5 49.5t89.5 17.5t88.5 -17t69.5 -48.5t45.5 -76t16.5 -99.5zM427 228q0 42 -11.5 76.5t-33 59t-51.5 38t-66 13.5t-66 -13.5t-51 -38.5
t-32.5 -59t-11.5 -74q0 -42 11.5 -76.5t33 -59t51.5 -38t66 -13.5t66 13.5t51 38.5t32.5 58.5t11.5 74.5zM368 518l-100 135h-1l-101 -135h-47l113 182h70l113 -182h-47z" />
    <glyph glyph-name="otilde" unicode="&#xf5;" horiz-adv-x="531" 
d="M488 230q0 -55 -17.5 -99.5t-47.5 -76.5t-71 -49.5t-89 -17.5t-88.5 17t-70 48.5t-46 76t-16.5 99.5t17.5 99.5t47.5 76.5t71.5 49.5t89.5 17.5t88.5 -17t69.5 -48.5t45.5 -76t16.5 -99.5zM427 228q0 42 -11.5 76.5t-33 59t-51.5 38t-66 13.5t-66 -13.5t-51 -38.5
t-32.5 -59t-11.5 -74q0 -42 11.5 -76.5t33 -59t51.5 -38t66 -13.5t66 13.5t51 38.5t32.5 58.5t11.5 74.5zM429 637q-8 -59 -29.5 -87t-59.5 -28q-22 0 -43 11t-40 24.5t-36 24.5t-31 11q-15 0 -25 -13.5t-20 -51.5h-41q8 59 29.5 87t59.5 28q22 0 43 -11.5t40.5 -25
t36.5 -24.5t31 -11t24.5 13.5t19.5 52.5h41z" />
    <glyph glyph-name="odieresis" unicode="&#xf6;" horiz-adv-x="531" 
d="M488 230q0 -55 -17.5 -99.5t-47.5 -76.5t-71 -49.5t-89 -17.5t-88.5 17t-70 48.5t-46 76t-16.5 99.5t17.5 99.5t47.5 76.5t71.5 49.5t89.5 17.5t88.5 -17t69.5 -48.5t45.5 -76t16.5 -99.5zM427 228q0 42 -11.5 76.5t-33 59t-51.5 38t-66 13.5t-66 -13.5t-51 -38.5
t-32.5 -59t-11.5 -74q0 -42 11.5 -76.5t33 -59t51.5 -38t66 -13.5t66 13.5t51 38.5t32.5 58.5t11.5 74.5zM411 593q0 -20 -13 -35t-34 -15q-22 0 -35.5 15t-13.5 35t13.5 34.5t35.5 14.5q21 0 34 -14.5t13 -34.5zM218 593q0 -20 -13 -35t-35 -15q-21 0 -34 15t-13 35
t13 34.5t34 14.5q22 0 35 -14.5t13 -34.5z" />
    <glyph glyph-name="divide" unicode="&#xf7;" horiz-adv-x="486" 
d="M41 208l3 54h399l3 -54h-405zM296 94q0 -20 -14 -36t-37 -16t-37.5 16t-14.5 36t14.5 35.5t37.5 15.5t37 -15.5t14 -35.5zM296 374q0 -20 -14.5 -36t-37.5 -16t-37 16t-14 36t14 36t37 16t37.5 -16t14.5 -36z" />
    <glyph glyph-name="oslash" unicode="&#xf8;" horiz-adv-x="531" 
d="M490 230q0 -55 -17.5 -99.5t-47.5 -76.5t-71 -49.5t-89 -17.5q-52 0 -98 22l-44 -76h-53q17 28 29 50q10 18 19 35q4 9 9 16q-38 31 -60.5 80.5t-22.5 113.5q0 55 17 99.5t47.5 76.5t72 49.5t89.5 17.5q53 0 98 -21q4 6 11 18.5t15 25.5q9 15 18 32h53l-58 -101
q38 -32 60.5 -81.5t22.5 -113.5zM339 399q-31 16 -73 16q-36 0 -66 -13.5t-51 -38.5t-32.5 -59t-11.5 -74q0 -48 14 -84.5t39 -60.5zM429 228q0 47 -14 83.5t-39 61.5l-181 -314q35 -16 73 -16q36 0 66 13.5t51 38.5t32.5 58.5t11.5 74.5z" />
    <glyph glyph-name="ugrave" unicode="&#xf9;" horiz-adv-x="504" 
d="M245 518l-152 179h80l118 -179h-46zM130 458v-296q0 -60 24 -88t75 -28q40 0 76.5 18t64.5 47v347h62v-458l-62 -13v74q-35 -36 -77.5 -55t-80.5 -19q-67 0 -105.5 41t-38.5 116v314h62z" />
    <glyph glyph-name="uacute" unicode="&#xfa;" horiz-adv-x="504" 
d="M130 458v-296q0 -60 24 -88t75 -28q40 0 76.5 18t64.5 47v347h62v-458l-62 -13v74q-35 -36 -77.5 -55t-80.5 -19q-67 0 -105.5 41t-38.5 116v314h62zM257 518h-46l118 179h80z" />
    <glyph glyph-name="ucircumflex" unicode="&#xfb;" horiz-adv-x="504" 
d="M130 458v-296q0 -60 24 -88t75 -28q40 0 76.5 18t64.5 47v347h62v-458l-62 -13v74q-35 -36 -77.5 -55t-80.5 -19q-67 0 -105.5 41t-38.5 116v314h62zM354 518l-100 135h-1l-101 -135h-47l113 182h70l113 -182h-47z" />
    <glyph glyph-name="udieresis" unicode="&#xfc;" horiz-adv-x="504" 
d="M130 458v-296q0 -60 24 -88t75 -28q40 0 76.5 18t64.5 47v347h62v-458l-62 -13v74q-35 -36 -77.5 -55t-80.5 -19q-67 0 -105.5 41t-38.5 116v314h62zM393 593q0 -20 -13 -35t-34 -15q-22 0 -35.5 15t-13.5 35t13.5 34.5t35.5 14.5q21 0 34 -14.5t13 -34.5zM200 593
q0 -20 -13 -35t-35 -15q-21 0 -34 15t-13 35t13 34.5t34 14.5q22 0 35 -14.5t13 -34.5z" />
    <glyph glyph-name="yacute" unicode="&#xfd;" horiz-adv-x="424" 
d="M242 5l-37 -99q-16 -42 -32.5 -70t-34.5 -44.5t-38 -23t-43 -6.5q-26 0 -47 6t-42 15l19 57q17 -9 34 -14.5t36 -5.5q13 0 24.5 4.5t23 16t23 32t23.5 53.5l31 81l-179 451h67l144 -378l141 378h65zM218 518h-46l118 179h80z" />
    <glyph glyph-name="thorn" unicode="&#xfe;" horiz-adv-x="512" 
d="M134 -240h-62v914l62 13v-272q23 20 56.5 36.5t74.5 16.5q47 0 85.5 -17.5t65.5 -49t41.5 -75t14.5 -95.5q0 -53 -17 -98t-47 -77.5t-71.5 -50.5t-90.5 -18q-27 0 -58 6.5t-54 17.5v-251zM134 79q21 -17 51.5 -26.5t63.5 -9.5q37 0 66.5 14t50 39t31.5 59t11 75
q0 40 -10.5 73t-30 57t-47.5 37.5t-63 13.5t-66.5 -14t-56.5 -37v-281z" />
    <glyph glyph-name="ydieresis" unicode="&#xff;" horiz-adv-x="424" 
d="M242 5l-37 -99q-16 -42 -32.5 -70t-34.5 -44.5t-38 -23t-43 -6.5q-26 0 -47 6t-42 15l19 57q17 -9 34 -14.5t36 -5.5q13 0 24.5 4.5t23 16t23 32t23.5 53.5l31 81l-179 451h67l144 -378l141 378h65zM357 593q0 -20 -13 -35t-34 -15q-22 0 -35.5 15t-13.5 35t13.5 34.5
t35.5 14.5q21 0 34 -14.5t13 -34.5zM164 593q0 -20 -13 -35t-35 -15q-21 0 -34 15t-13 35t13 34.5t34 14.5q22 0 35 -14.5t13 -34.5z" />
    <glyph glyph-name="dotlessi" unicode="&#x131;" horiz-adv-x="209" 
d="M75 0v453l62 13v-466h-62z" />
    <glyph glyph-name="Lslash" unicode="&#x141;" horiz-adv-x="496" 
d="M165 61h304v-61h-367v252l-85 -23v55l85 23v318h63v-301l153 42v-56l-77 -21q-14 -4 -27.5 -7.5t-24.5 -6.5q-12 -4 -24 -7v-207z" />
    <glyph glyph-name="lslash" unicode="&#x142;" horiz-adv-x="245" 
d="M156 0h-62v251l-85 -23v57l85 23v366l62 13v-362l85 23v-57l-85 -23v-268z" />
    <glyph glyph-name="OE" unicode="&#x152;" horiz-adv-x="910" 
d="M863 566h-313v-223h261v-59h-261v-225h313v-59h-483q-77 0 -138.5 22t-104 62.5t-65.5 97.5t-23 126q0 74 22.5 132.5t65.5 99.5t105.5 63t142.5 22h478v-59zM113 313q0 -120 71.5 -187t199.5 -67h102v507h-104q-60 0 -109.5 -15.5t-85 -47t-55 -79t-19.5 -111.5z" />
    <glyph glyph-name="oe" unicode="&#x153;" horiz-adv-x="857" 
d="M750 277q1 4 1 10v10q0 53 -28 85.5t-83 32.5q-30 0 -55 -11t-43.5 -30t-30 -44.5t-15.5 -53.5zM104 230q0 -42 11.5 -76.5t33 -59t51.5 -38t66 -13.5t66 13.5t51 38.5t32.5 58.5t11.5 74.5q0 42 -11.5 76.5t-33 59t-51.5 38t-66 13.5t-66 -13.5t-51 -38.5t-32.5 -59
t-11.5 -74zM457 106q-28 -56 -78.5 -87.5t-115.5 -31.5q-48 0 -88.5 17t-70 48.5t-46 76t-16.5 99.5t17.5 99.5t47.5 76.5t71.5 49.5t89.5 17.5q66 0 115.5 -31t75.5 -88q27 55 75 87t111 32q76 0 121.5 -45.5t45.5 -123.5q0 -18 -2.5 -38t-7.5 -35h-13.5t-35.5 -0.5
t-49.5 -0.5h-56.5q-68 -1 -155 -1v-5q1 -39 12.5 -71.5t32.5 -56t50 -36.5t65 -13q38 0 72 10.5t60 27.5l13 -57q-30 -18 -67.5 -28.5t-80.5 -10.5q-67 0 -116.5 32t-75.5 87z" />
    <glyph glyph-name="Scaron" unicode="&#x160;" horiz-adv-x="490" 
d="M239 44q33 0 60 9t46.5 25t30.5 37.5t11 46.5q0 27 -11 47t-31.5 35t-49.5 26.5t-66 22.5q-33 10 -65.5 23t-58.5 33t-42 48.5t-16 70.5q0 37 15 68.5t41.5 54t63 35t80.5 12.5q54 0 101 -14t87 -40l-23 -56q-35 24 -78.5 38t-85.5 14q-35 0 -61.5 -8.5t-43.5 -23.5
t-25.5 -34.5t-8.5 -40.5q0 -26 11 -44.5t32 -32.5t50 -25.5t65 -22.5q34 -10 66.5 -23.5t58 -34.5t41 -51t15.5 -72q0 -39 -15.5 -72t-43 -57t-66.5 -37.5t-86 -13.5q-57 0 -107.5 15.5t-93.5 42.5l23 57q38 -26 82 -42t98 -16zM281 680h-70l-113 182h47l100 -136h1l101 136
h47z" />
    <glyph glyph-name="scaron" unicode="&#x161;" horiz-adv-x="387" 
d="M347 125q0 -32 -12.5 -57.5t-35 -43.5t-52.5 -27.5t-64 -9.5q-41 0 -81 11t-69 30l17 57q29 -20 64.5 -31t70.5 -11q21 0 39.5 5t32.5 14.5t22.5 24t8.5 33.5q0 21 -10 35t-26 23.5t-37 16.5l-42 14q-24 7 -47.5 17t-42.5 25t-31 36.5t-12 51.5q0 31 12 55.5t33 41.5
t49.5 26t60.5 9q38 0 74 -9.5t65 -24.5l-18 -56q-29 16 -62 25t-63 9q-42 0 -67 -18.5t-25 -51.5q0 -20 9.5 -33t25 -22.5t36 -16.5t42.5 -14q24 -7 48.5 -17t43.5 -25.5t31 -37.5t12 -54zM228 513h-70l-113 182h47l100 -136h1l101 136h47z" />
    <glyph glyph-name="Ydieresis" unicode="&#x178;" horiz-adv-x="524" 
d="M294 251v-251h-64v251l-218 374h72l180 -311l177 311h71zM407 760q0 -20 -13 -35t-34 -15q-22 0 -35.5 15t-13.5 35t13.5 34.5t35.5 14.5q21 0 34 -14.5t13 -34.5zM214 760q0 -20 -13 -35t-35 -15q-21 0 -34 15t-13 35t13 34.5t34 14.5q22 0 35 -14.5t13 -34.5z" />
    <glyph glyph-name="Zcaron" unicode="&#x17d;" horiz-adv-x="510" 
d="M24 0v47l371 520h-360v58h440v-48l-371 -519h370v-58h-450zM288 680h-70l-113 182h47l100 -136h1l101 136h47z" />
    <glyph glyph-name="zcaron" unicode="&#x17e;" horiz-adv-x="392" 
d="M21 0v49l273 354h-264v55h338v-48l-273 -355h273v-55h-347zM228 513h-70l-113 182h47l100 -136h1l101 136h47z" />
    <glyph glyph-name="florin" unicode="&#x192;" horiz-adv-x="359" 
d="M128 343l-102 5l9 39l104 15l17 83q16 75 50 110.5t91 35.5q29 0 54.5 -9t43.5 -23q0 -1 -4 -8.5t-9 -17.5q-6 -11 -13 -26q-17 11 -35 18.5t-38 7.5q-33 0 -52 -23t-29 -71l-17 -80h119l-7 -55h-122l-43 -219q-12 -64 -43.5 -97.5t-94.5 -45.5l-14 57q45 8 66 30.5
t28 61.5z" />
    <glyph glyph-name="circumflex" unicode="&#x2c6;" 
d="M301 518l-100 135h-1l-101 -135h-47l113 182h70l113 -182h-47z" />
    <glyph glyph-name="caron" unicode="&#x2c7;" 
d="M235 513h-70l-113 182h47l100 -136h1l101 136h47z" />
    <glyph glyph-name="breve" unicode="&#x2d8;" 
d="M349 699q-6 -35 -17 -67.5t-29 -58t-43.5 -41t-59.5 -15.5t-59.5 15.5t-43.5 41t-29 58t-17 67.5h49q15 -64 38.5 -98.5t61.5 -34.5t62 34.5t38 98.5h49v0z" />
    <glyph glyph-name="dotaccent" unicode="&#x2d9;" 
d="M246 592q0 -20 -13 -34.5t-34 -14.5t-33.5 14.5t-12.5 34.5t12.5 34t33.5 14t34 -14t13 -34z" />
    <glyph glyph-name="ring" unicode="&#x2da;" 
d="M319 618q0 -43 -31.5 -73t-87.5 -30q-55 0 -86.5 30t-31.5 73q0 42 31.5 73t86.5 31q56 0 87 -31t32 -73zM275 617q0 28 -20 48.5t-55 20.5q-33 0 -53 -20t-20 -47q0 -28 20 -48t53 -20q35 0 55 19.5t20 46.5z" />
    <glyph glyph-name="ogonek" unicode="&#x2db;" 
d="M304 -213q-20 -15 -45.5 -24.5t-53.5 -9.5q-23 0 -43.5 7.5t-36 21t-24.5 32t-9 41.5q0 26 12 51.5t33 47.5t50.5 40t64.5 29h55q-81 -35 -122 -77.5t-41 -86.5q0 -29 19 -45.5t49 -16.5q22 0 42.5 7.5t42.5 19.5l7 -37v0z" />
    <glyph glyph-name="tilde" unicode="&#x2dc;" 
d="M362 637q-8 -59 -29.5 -87t-59.5 -28q-22 0 -43 11t-40 24.5t-36 24.5t-31 11q-15 0 -25 -13.5t-20 -51.5h-41q8 59 29.5 87t59.5 28q22 0 43 -11.5t40.5 -25t36.5 -24.5t31 -11t24.5 13.5t19.5 52.5h41v0z" />
    <glyph glyph-name="hungarumlaut" unicode="&#x2dd;" 
d="M273 513h-51l126 177h66zM118 513h-51l114 177h66z" />
    <glyph glyph-name="endash" unicode="&#x2013;" horiz-adv-x="445" 
d="M31 215l3 49h378l3 -49h-384z" />
    <glyph glyph-name="emdash" unicode="&#x2014;" horiz-adv-x="915" 
d="M31 215l3 49h848l3 -49h-854z" />
    <glyph glyph-name="quoteleft" unicode="&#x2018;" horiz-adv-x="187" 
d="M150 454q-2 -19 -15.5 -34t-38.5 -15q-27 0 -49 22t-22 57q0 25 10 49t26.5 45.5t39 41t48.5 36.5l27 -25q-48 -35 -68 -64.5t-20 -55.5q0 -20 14.5 -32t47.5 -25z" />
    <glyph glyph-name="quoteright" unicode="&#x2019;" horiz-adv-x="187" 
d="M37 608q2 20 15.5 35t38.5 15q27 0 49 -22t22 -57q0 -25 -10 -49t-26.5 -45.5t-39.5 -41.5t-48 -36l-27 25q48 35 68 64t20 56q0 19 -14.5 31t-47.5 25z" />
    <glyph glyph-name="quotesinglbase" unicode="&#x201a;" horiz-adv-x="187" 
d="M37 50q2 20 15.5 35t38.5 15q27 0 49 -22t22 -57q0 -25 -10 -49t-26.5 -45.5t-39.5 -41.5t-48 -36l-27 25q48 35 68 64t20 56q0 19 -14.5 31t-47.5 25z" />
    <glyph glyph-name="quotedblleft" unicode="&#x201c;" horiz-adv-x="384" 
d="M347 454q-2 -19 -15.5 -34t-38.5 -15q-27 0 -49 22t-22 57q0 25 10 49t26.5 45.5t39 41t48.5 36.5l27 -25q-48 -35 -68 -64.5t-20 -55.5q0 -20 14.5 -32t47.5 -25zM150 454q-2 -19 -15.5 -34t-38.5 -15q-27 0 -49 22t-22 57q0 25 10 49t26.5 45.5t39 41t48.5 36.5l27 -25
q-48 -35 -68 -64.5t-20 -55.5q0 -20 14.5 -32t47.5 -25z" />
    <glyph glyph-name="quotedblright" unicode="&#x201d;" horiz-adv-x="384" 
d="M234 608q2 20 15.5 35t38.5 15q27 0 49 -22t22 -57q0 -25 -10 -49t-26.5 -45.5t-39.5 -41.5t-48 -36l-27 25q48 35 68 64t20 56q0 19 -14.5 31t-47.5 25zM37 608q2 20 15.5 35t38.5 15q27 0 49 -22t22 -57q0 -25 -10 -49t-26.5 -45.5t-39.5 -41.5t-48 -36l-27 25
q48 35 68 64t20 56q0 19 -14.5 31t-47.5 25z" />
    <glyph glyph-name="quotedblbase" unicode="&#x201e;" horiz-adv-x="377" 
d="M234 50q2 20 15.5 35t38.5 15q27 0 49 -22t22 -57q0 -25 -10 -49t-26.5 -45.5t-39.5 -41.5t-48 -36l-27 25q48 35 68 64t20 56q0 19 -14.5 31t-47.5 25zM37 50q2 20 15.5 35t38.5 15q27 0 49 -22t22 -57q0 -25 -10 -49t-26.5 -45.5t-39.5 -41.5t-48 -36l-27 25
q48 35 68 64t20 56q0 19 -14.5 31t-47.5 25z" />
    <glyph glyph-name="dagger" unicode="&#x2020;" horiz-adv-x="466" 
d="M36 391l-3 47h174v187h51v-187h174l-3 -47h-171v-517h-51v517h-171z" />
    <glyph glyph-name="daggerdbl" unicode="&#x2021;" horiz-adv-x="466" 
d="M36 406l-3 47h174v172h51v-172h174l-3 -47h-171v-314h171l3 -47h-174v-171h-51v171h-174l3 47h171v314h-171z" />
    <glyph glyph-name="bullet" unicode="&#x2022;" horiz-adv-x="452" 
d="M418 232q0 -11 -6 -31t-14.5 -41t-18 -39t-17.5 -26t-26 -17.5t-39 -18t-41 -14.5t-31 -6t-30.5 6t-40.5 14.5t-39 18t-25 17.5q-8 8 -17.5 26t-18.5 39t-15 41t-6 31t6 30.5t15 40.5t18.5 39t17.5 26q7 7 25.5 17t39.5 18.5t40.5 14.5t30.5 6t30.5 -6t40.5 -14.5
t39 -18.5t26 -17q7 -8 17 -26t18.5 -39t14.5 -40.5t6 -30.5z" />
    <glyph glyph-name="ellipsis" unicode="&#x2026;" horiz-adv-x="566" 
d="M523 39q0 -20 -14 -36t-36 -16t-36 16t-14 36t14 35t36 15t36 -15t14 -35zM333 39q0 -20 -13.5 -36t-35.5 -16q-23 0 -37 16t-14 36t14 35t37 15q22 0 35.5 -15t13.5 -35zM144 39q0 -20 -14 -36t-36 -16t-36 16t-14 36t14 35t36 15t36 -15t14 -35z" />
    <glyph glyph-name="perthousand" unicode="&#x2030;" horiz-adv-x="1119" 
d="M347 482q0 -33 -11.5 -63t-33 -52.5t-52 -36t-69.5 -13.5q-38 0 -69 13.5t-52.5 36t-33 52.5t-11.5 63q0 34 11.5 64.5t33 53t52.5 36t69 13.5q39 0 69.5 -13.5t52 -36t33 -53t11.5 -64.5zM146 -15h-55l507 654h54zM727 142q0 -34 -11.5 -64.5t-33 -53t-52.5 -36
t-69 -13.5q-39 0 -69.5 13.5t-52 36t-33 53t-11.5 64.5q0 33 11.5 63t33 52.5t52 36t69.5 13.5q38 0 69 -13.5t52.5 -36t33 -52.5t11.5 -63zM302 482q0 52 -32 88t-89 36t-88.5 -36t-31.5 -88q0 -24 8 -46.5t23.5 -39t38 -26.5t50.5 -10t50.5 10t38.5 26.5t24 39t8 46.5z
M682 142q0 24 -8 46.5t-24 39t-38.5 26.5t-50.5 10t-50.5 -10t-38 -26.5t-23.5 -39t-8 -46.5q0 -52 31.5 -88t88.5 -36t89 36t32 88zM1103 142q0 -34 -11.5 -64.5t-33 -53t-52.5 -36t-69 -13.5q-39 0 -69.5 13.5t-52 36t-33 53t-11.5 64.5q0 33 11.5 63t33 52.5t52 36
t69.5 13.5q38 0 69 -13.5t52.5 -36t33 -52.5t11.5 -63zM1058 142q0 24 -8.5 46.5t-24 39t-38 26.5t-50.5 10t-50.5 -10t-38 -26.5t-24 -39t-8.5 -46.5q0 -52 32 -88t89 -36t89 36t32 88z" />
    <glyph glyph-name="guilsinglleft" unicode="&#x2039;" horiz-adv-x="328" 
d="M276 26l-245 175v66l245 175l8 -48l-199 -159v-2l199 -159z" />
    <glyph glyph-name="guilsinglright" unicode="&#x203a;" horiz-adv-x="328" 
d="M51 26l-8 48l200 159v2l-200 159l8 48l246 -175v-66z" />
    <glyph glyph-name="fraction" unicode="&#x2044;" horiz-adv-x="578" 
d="M63 -15h-55l508 654h53z" />
    <glyph glyph-name="Euro" unicode="&#x20ac;" horiz-adv-x="504" 
d="M36 372l-3 45h79q20 112 79 167.5t148 55.5q87 0 144 -34l-14 -55q-57 34 -130 34q-136 0 -166 -168h235l-3 -45h-237q-1 -14 -1.5 -28t-0.5 -28q0 -16 0.5 -31.5t1.5 -29.5h207l3 -45h-204q31 -170 162 -170q40 0 73.5 8.5t61.5 24.5l10 -55q-29 -16 -65 -24.5t-82 -8.5
q-91 0 -149 55t-75 170h-77l3 45h69q-1 14 -1.5 27.5t-0.5 27.5q0 16 0.5 31.5t1.5 30.5h-69z" />
    <glyph glyph-name="trademark" unicode="&#x2122;" horiz-adv-x="908" 
d="M779 252l-9 317h-7l-117 -312h-56l-105 312h-7l-11 -317h-46l15 374h83l99 -315h7l110 315h79l14 -374h-49zM222 579v-327h-48v327h-141v47h335v-47h-146z" />
    <glyph glyph-name="Delta" unicode="&#x2206;" horiz-adv-x="373" 
d="M308 178q0 -191 -173 -191q-34 0 -66 10t-53 23l10 62q26 -17 54.5 -27t54.5 -10q109 0 109 135v445h64v-447v0z" />
    <glyph glyph-name="minus" unicode="&#x2212;" horiz-adv-x="486" 
d="M41 208l3 54h399l3 -54h-405z" />
    <glyph glyph-name="notequal" unicode="&#x2260;" horiz-adv-x="601" 
d="M146 0h-61v400l-74 5l4 38l69 16l1 62q1 45 11.5 76.5t28.5 51t43 28.5t55 9q23 0 45.5 -6t38.5 -14l-2.5 -9t-5 -19.5t-5 -19l-2.5 -8.5q-16 8 -33.5 13.5t-36.5 5.5q-38 0 -57 -25.5t-19 -81.5v-66h241l1 75q1 45 11.5 76.5t28.5 51t43 28.5t55 9q24 0 46.5 -6
t38.5 -14l-2.5 -9t-5 -19.5t-5 -19l-2.5 -8.5q-16 8 -33.5 13.5t-37.5 5.5q-38 0 -56.5 -25.5t-18.5 -81.5v-76h143l-3 -56h-140v-400h-62v400h-242v-400z" />
    <glyph glyph-name="lessequal" unicode="&#x2264;" horiz-adv-x="802" 
d="M146 0h-61v400l-74 5l4 38l69 16l1 62q0 45 10.5 76.5t29 51t43.5 28.5t55 9q23 0 45.5 -6t38.5 -14l-2.5 -9t-5 -19.5t-5 -19l-2.5 -8.5q-16 8 -33.5 13.5t-36.5 5.5q-38 0 -57 -25.5t-19 -81.5v-66h241l1 75q1 45 11.5 76.5t28.5 51t43 28.5t55 9q24 0 46.5 -6
t38.5 -14l-2.5 -9t-5 -19.5t-5 -19l-2.5 -8.5q-16 8 -33.5 13.5t-37.5 5.5q-38 0 -56.5 -25.5t-18.5 -81.5v-76h216l64 15v-471h-61v400h-219v-400h-62v400h-242v-400z" />
    <glyph glyph-name="greaterequal" unicode="&#x2265;" horiz-adv-x="802" 
d="M669 0v674l61 13v-687h-61zM146 0h-61v400l-74 5l4 38l69 16l1 62q1 45 11.5 76.5t28.5 51t43 28.5t55 9q23 0 45.5 -6t38.5 -14l-2.5 -9t-5 -19.5t-5 -19l-2.5 -8.5q-16 8 -33.5 13.5t-36.5 5.5q-38 0 -57 -25.5t-19 -81.5v-66h241l1 75q1 45 11.5 76.5t28.5 51t43 28.5
t55 9q24 0 46.5 -6t38.5 -14l-2.5 -9t-5 -19.5t-5 -19l-2.5 -8.5q-16 8 -33.5 13.5t-37.5 5.5q-38 0 -56.5 -25.5t-18.5 -81.5v-76h143l-3 -56h-140v-400h-62v400h-242v-400z" />
    <glyph glyph-name="apple" unicode="&#xf8ff;" horiz-adv-x="758" 
d="M583 148l69 -189l-189 69l-85 -181l-84 180l-187 -68l68 187l-181 86l181 83l-68 189l187 -69l86 181l83 -181l189 69l-69 -189l180 -82zM531 294l50 139l-139 -50l-63 133l-63 -133l-139 50l51 -139l-134 -63l134 -63l-51 -138l139 51l62 -135l64 135l139 -51l-50 140
l132 62z" />
    <glyph glyph-name="ff" unicode="&#xfb00;" horiz-adv-x="601" 
d="M146 0h-61v400l-74 5l4 38l69 16l1 62q1 45 11.5 76.5t28.5 51t43 28.5t55 9q23 0 45.5 -6t38.5 -14l-2.5 -9t-5 -19.5t-5 -19l-2.5 -8.5q-16 8 -33.5 13.5t-36.5 5.5q-38 0 -57 -25.5t-19 -81.5v-66h241l1 75q1 45 11.5 76.5t28.5 51t43 28.5t55 9q24 0 46.5 -6
t38.5 -14l-2.5 -9t-5 -19.5t-5 -19l-2.5 -8.5q-16 8 -33.5 13.5t-37.5 5.5q-38 0 -56.5 -25.5t-18.5 -81.5v-76h143l-3 -56h-140v-400h-62v400h-242v-400z" />
    <glyph glyph-name="fi" unicode="&#xfb01;" horiz-adv-x="499" 
d="M146 400v-400h-61v400l-74 5l4 38l69 16l1 72q1 45 11.5 76.5t28.5 51t43 28.5t55 9q23 0 45.5 -6t38.5 -14l-2.5 -9t-5 -19.5t-5 -19l-2.5 -8.5q-16 8 -33.5 13.5t-36.5 5.5q-38 0 -57 -25.5t-19 -81.5v-76h216l65 15v-471h-62v400h-219z" />
    <glyph glyph-name="fl" unicode="&#xfb02;" horiz-adv-x="499" 
d="M307 676l-2.5 -9t-5 -19.5t-5 -19l-2.5 -8.5q-16 8 -33.5 13.5t-36.5 5.5q-38 0 -57 -25.5t-19 -81.5v-76h144l-3 -56h-141v-400h-61v400l-74 5l4 38l69 16l1 72q1 45 11.5 76.5t28.5 51t43 28.5t55 9q23 0 45.5 -6t38.5 -14zM365 0v674l62 13v-687h-62z" />
    <glyph glyph-name="ffi" unicode="&#xfb03;" horiz-adv-x="802" 
d="M146 0h-61v400l-74 5l4 38l69 16l1 62q0 45 10.5 76.5t29 51t43.5 28.5t55 9q23 0 45.5 -6t38.5 -14l-2.5 -9t-5 -19.5t-5 -19l-2.5 -8.5q-16 8 -33.5 13.5t-36.5 5.5q-38 0 -57 -25.5t-19 -81.5v-66h241l1 75q1 45 11.5 76.5t28.5 51t43 28.5t55 9q24 0 46.5 -6
t38.5 -14l-2.5 -9t-5 -19.5t-5 -19l-2.5 -8.5q-16 8 -33.5 13.5t-37.5 5.5q-38 0 -56.5 -25.5t-18.5 -81.5v-76h216l64 15v-471h-61v400h-219v-400h-62v400h-242v-400z" />
    <glyph glyph-name="ffl" unicode="&#xfb04;" horiz-adv-x="802" 
d="M669 0v674l61 13v-687h-61zM146 0h-61v400l-74 5l4 38l69 16l1 62q1 45 11.5 76.5t28.5 51t43 28.5t55 9q23 0 45.5 -6t38.5 -14l-2.5 -9t-5 -19.5t-5 -19l-2.5 -8.5q-16 8 -33.5 13.5t-36.5 5.5q-38 0 -57 -25.5t-19 -81.5v-66h241l1 75q1 45 11.5 76.5t28.5 51t43 28.5
t55 9q24 0 46.5 -6t38.5 -14l-2.5 -9t-5 -19.5t-5 -19l-2.5 -8.5q-16 8 -33.5 13.5t-37.5 5.5q-38 0 -56.5 -25.5t-18.5 -81.5v-76h143l-3 -56h-140v-400h-62v400h-242v-400z" />
    <glyph glyph-name="onehalf" horiz-adv-x="715" 
d="M122 -116h-55l537 741h54zM165 596l-100 -25l-2 45l154 39v-382h-52v323zM415 -143l-2 45q48 43 85.5 74.5t63 57.5t38.5 48.5t13 46.5q0 32 -22 50.5t-58 18.5q-26 0 -51.5 -11.5t-45.5 -28.5l-19 41q20 17 52.5 30t70.5 13q58 0 92 -30t34 -80q0 -27 -12 -51
t-36.5 -50.5t-61 -57.5t-84.5 -72h8.5h23h33h38.5h103l2 -44h-265z" />
    <glyph glyph-name="onequarter" horiz-adv-x="715" 
d="M644 -48v-96h-48v96h-190l-5 35l185 250h58v-244h60l2 -41h-62zM596 184l-141 -191h141v191zM137 -116h-55l537 741h54zM165 596l-100 -25l-2 45l154 39v-382h-52v323z" />
    <glyph glyph-name="threequarters" horiz-adv-x="715" 
d="M644 -48v-96h-48v96h-190l-5 35l185 250h58v-244h60l2 -41h-62zM596 184l-141 -191h141v191zM137 -116h-55l537 741h54zM174 472q61 0 91 -27.5t30 -64.5q0 -27 -12 -48.5t-32 -36t-47.5 -22.5t-58.5 -8q-29 0 -60.5 7t-51.5 18l10 43q20 -10 47 -17.5t57 -7.5
q19 0 36 4.5t30 13t21 21.5t8 30q0 29 -24.5 47.5t-71.5 18.5q-14 -1 -29.5 -2.5t-28.5 -3.5v39q65 14 102 33.5t37 51.5q0 26 -20.5 40t-55.5 14q-25 0 -51.5 -10t-46.5 -26l-20 41q23 16 55 27t66 11q57 0 91.5 -24t34.5 -67q0 -68 -106 -95z" />
    </font>
</defs>
</svg>
